<?xml version="1.0" standalone="no"?>
<!DOCTYPE svg PUBLIC "-//W3C//DTD SVG 1.1//EN" "http://www.w3.org/Graphics/SVG/1.1/DTD/svg11.dtd" >
<svg>
<metadata>
Created by FontForge 20120731 at Fri Jul 26 13:38:02 2013
 By Stefan Warting
FN-LT-BCnd.
</metadata>
<defs>
<font id="FN-LT-BCnd" horiz-adv-x="486" >
  <font-face 
    font-family="FN-LT"
    font-weight="400"
    font-stretch="normal"
    units-per-em="1000"
    panose-1="2 0 5 3 0 0 0 0 0 0"
    ascent="800"
    descent="-200"
    x-height="502"
    cap-height="667"
    bbox="-131 -227 1060 889"
    underline-thickness="50"
    underline-position="-100"
    stemh=" 20 "
    stemv=" 85 "
    unicode-range="U+0020-FB02"
  />
    <missing-glyph />
    <glyph glyph-name="eth" unicode="&#xf0;" horiz-adv-x="499" 
d="M463 274c0 -129 -52 -285 -213 -285c-149 0 -214 124 -214 260c0 129 64 246 188 246c40 0 79 -22 105 -51c-21 63 -47 117 -91 156l-98 -53l-43 43l91 48c-25 16 -57 34 -88 46l87 47c35 -12 67 -29 94 -48l88 48l43 -41l-80 -46c100 -92 131 -241 131 -370zM344 249
c0 62 -12 159 -94 159c-80 0 -92 -96 -92 -159c0 -70 16 -173 92 -173c81 0 94 103 94 173z" />
    <glyph glyph-name="Lslash" unicode="&#x141;" horiz-adv-x="427" 
d="M409 0h-333v275l-57 -53v90l57 54v301h123v-213l105 99v-92l-105 -98v-264h210v-99z" />
    <glyph glyph-name="lslash" unicode="&#x142;" horiz-adv-x="241" 
d="M232 446l-54 -51v-395h-116v309l-54 -51v90l54 51v322h116v-236l54 51v-90z" />
    <glyph glyph-name="Scaron" unicode="&#x160;" horiz-adv-x="466" 
d="M373 860l-92 -136h-83l-92 136h80l53 -86l53 86h81zM424 189c0 -119 -91 -200 -213 -200c-51 0 -119 10 -162 29l6 107c48 -32 105 -43 138 -43c86 0 104 61 104 95c0 58 -33 80 -82 107l-61 34c-79 44 -108 98 -108 178c0 134 122 181 213 181c58 0 101 -13 139 -22
l-6 -105c-34 18 -78 34 -123 34s-97 -23 -97 -81c0 -47 26 -69 70 -94l57 -33c85 -49 125 -87 125 -187z" />
    <glyph glyph-name="scaron" unicode="&#x161;" horiz-adv-x="394" 
d="M331 718l-91 -136h-83l-92 136h81l52 -86l52 86h81zM363 145c0 -100 -76 -156 -172 -156c-53 0 -108 9 -157 26l9 97c43 -23 90 -36 134 -36c32 0 70 21 70 58c0 87 -209 76 -209 233c0 100 98 145 181 145c39 0 81 -6 119 -19l-6 -93c-38 15 -68 26 -108 26
c-33 0 -69 -20 -69 -55c0 -93 208 -72 208 -226z" />
    <glyph glyph-name="Yacute" unicode="&#xdd;" 
d="M364 860l-92 -136h-73l73 136h92zM488 667l-184 -400v-267h-122v267l-184 400h140l110 -287l106 287h134z" />
    <glyph glyph-name="yacute" unicode="&#xfd;" horiz-adv-x="441" 
d="M346 718l-92 -136h-74l73 136h93zM434 502l-167 -565c-30 -103 -69 -163 -158 -163c-22 0 -49 5 -70 13l6 87c10 -6 29 -11 48 -11c32 0 49 37 62 70l19 66l-168 503h127l99 -368l86 368h116z" />
    <glyph glyph-name="Thorn" unicode="&#xde;" horiz-adv-x="505" 
d="M480 337c0 -132 -87 -204 -214 -204h-69v-133h-121v667h121v-127h63c130 0 220 -66 220 -203zM355 337c0 75 -44 110 -117 110h-42v-220h50c73 0 109 39 109 110z" />
    <glyph glyph-name="thorn" unicode="&#xfe;" horiz-adv-x="513" 
d="M478 253c0 -107 -41 -264 -173 -264c-63 0 -102 31 -127 81v-286h-116v937h116v-291c27 50 67 82 130 82c137 0 170 -149 170 -259zM356 253c0 57 -9 172 -87 172s-92 -105 -92 -172s9 -178 91 -178c77 0 88 121 88 178z" />
    <glyph glyph-name="Zcaron" unicode="&#x17d;" horiz-adv-x="464" 
d="M367 860l-91 -136h-85l-92 136h82l53 -86l52 86h81zM433 0h-402v99l266 472h-257v96h389v-98l-264 -473h268v-96z" />
    <glyph glyph-name="zcaron" unicode="&#x17e;" horiz-adv-x="388" 
d="M331 718l-91 -136h-83l-92 136h81l52 -86l52 86h81zM361 0h-334v95l211 320h-203v87h322v-95l-211 -319h215v-88z" />
    <glyph glyph-name="onehalf" unicode="&#xbd;" horiz-adv-x="800" 
d="M700 0h-249v63l41 42c52 53 118 125 118 183c0 37 -23 56 -62 56c-29 0 -55 -7 -84 -21l-4 62c21 8 57 22 115 22c75 0 121 -45 121 -110c0 -82 -79 -163 -107 -190l-46 -44h157v-63zM538 691l-288 -715h-72l288 715h72zM234 266h-84v310l-56 -52l-40 56l111 87h69v-401z
" />
    <glyph glyph-name="onequarter" unicode="&#xbc;" horiz-adv-x="800" 
d="M693 81h-44v-81h-81v81h-160v75l146 245h95v-259h44v-61zM550 691l-288 -715h-72l288 715h72zM246 266h-84v310l-56 -52l-40 56l111 87h69v-401zM571 142v181l-107 -181h107z" />
    <glyph glyph-name="onesuperior" unicode="&#xb9;" horiz-adv-x="350" 
d="M228 266h-84v310l-56 -52l-40 56l111 87h69v-401z" />
    <glyph glyph-name="threequarters" unicode="&#xbe;" horiz-adv-x="800" 
d="M738 81h-44v-81h-81v81h-160v75l147 245h94v-259h44v-61zM595 691l-288 -715h-71l288 715h71zM327 384c0 -67 -49 -119 -161 -119c-21 0 -72 6 -92 16l4 66c31 -11 55 -19 86 -19c46 0 77 22 77 61c0 42 -36 59 -89 59h-23v61h23c48 0 87 14 87 56c0 34 -33 49 -69 49
c-32 0 -56 -7 -81 -18l-4 63c33 10 67 18 109 18c69 0 130 -33 130 -105c0 -43 -30 -78 -86 -91c43 -6 89 -35 89 -97zM616 142v181l-106 -181h106z" />
    <glyph glyph-name="threesuperior" unicode="&#xb3;" horiz-adv-x="350" 
d="M296 384c0 -67 -49 -119 -161 -119c-21 0 -72 6 -92 16l4 66c31 -11 55 -19 86 -19c46 0 77 22 77 61c0 42 -36 59 -89 59h-23v61h23c48 0 87 14 87 56c0 34 -33 49 -69 49c-32 0 -56 -7 -81 -18l-4 63c33 10 67 18 109 18c69 0 130 -33 130 -105c0 -43 -30 -78 -86 -91
c43 -6 89 -35 89 -97z" />
    <glyph glyph-name="twosuperior" unicode="&#xb2;" horiz-adv-x="350" 
d="M303 270h-249v63l42 42c52 52 117 125 117 183c0 37 -22 56 -61 56c-29 0 -56 -7 -85 -21l-4 62c21 8 58 22 116 22c75 0 120 -45 120 -110c0 -82 -77 -163 -106 -190l-47 -44h157v-63z" />
    <glyph glyph-name="brokenbar" unicode="&#xa6;" horiz-adv-x="208" 
d="M148 379h-87v396h87v-396zM148 -216h-87v397h87v-397z" />
    <glyph glyph-name="minus" unicode="&#x2212;" horiz-adv-x="588" 
d="M552 208h-516v91h516v-91z" />
    <glyph glyph-name="multiply" unicode="&#xd7;" horiz-adv-x="588" 
d="M541 72l-65 -65l-181 182l-182 -182l-65 65l182 182l-182 181l65 66l181 -183l182 182l65 -65l-182 -181z" />
    <glyph glyph-name="space" unicode=" " horiz-adv-x="243" 
 />
    <glyph glyph-name="exclam" unicode="!" horiz-adv-x="277" 
d="M200 667l-14 -463h-94l-15 463h123zM196 0h-114v132h114v-132z" />
    <glyph glyph-name="quotedbl" unicode="&#x22;" horiz-adv-x="412" 
d="M347 459h-99v208h99v-208zM165 459h-99v208h99v-208z" />
    <glyph glyph-name="numbersign" unicode="#" 
d="M461 394h-86l-16 -121h83v-74h-95l-27 -199h-74l28 199h-102l-27 -199h-74l28 199h-74v74h85l16 121h-82v74h94l26 199h74l-27 -199h101l27 199h74l-27 -199h75v-74zM301 394h-101l-16 -121h101z" />
    <glyph glyph-name="dollar" unicode="$" 
d="M433 189c0 -101 -66 -176 -162 -195v-102h-64v97c-48 1 -109 11 -149 29l6 107c48 -32 105 -43 138 -43c86 0 104 59 104 93c0 61 -33 82 -82 109l-61 34c-79 44 -108 98 -108 178c0 106 76 161 159 176v102h63v-97c54 -1 95 -13 130 -22l-6 -105c-34 18 -78 34 -123 34
s-97 -23 -97 -81c0 -47 26 -69 70 -94l57 -33c85 -49 125 -87 125 -187z" />
    <glyph glyph-name="percent" unicode="%" horiz-adv-x="800" 
d="M744 195c0 -86 -19 -206 -135 -206c-118 0 -135 120 -135 206c0 80 19 206 135 206c120 0 135 -123 135 -206zM580 691l-288 -715h-72l288 715h72zM326 471c0 -86 -19 -206 -135 -206c-118 0 -135 120 -135 206c0 80 19 206 135 206c120 0 135 -123 135 -206zM661 195
c0 73 -5 144 -52 144s-51 -69 -51 -144c0 -77 6 -145 51 -145c47 0 52 71 52 145zM242 471c0 73 -4 144 -51 144s-52 -69 -52 -144c0 -77 7 -145 52 -145c47 0 51 71 51 145z" />
    <glyph glyph-name="ampersand" unicode="&#x26;" horiz-adv-x="555" 
d="M539 299h-78v-282c-57 -18 -120 -28 -180 -28c-126 0 -231 48 -231 189c0 96 74 157 164 166c-93 9 -147 60 -147 155c0 117 107 178 217 178c50 0 89 -8 136 -23l-6 -101c-44 22 -77 31 -130 31c-55 0 -101 -40 -101 -94c0 -67 41 -103 108 -103h60v71h110v-71h78v-88z
M351 92v207h-60c-69 0 -125 -42 -125 -111c0 -68 49 -106 117 -106c24 0 45 3 68 10z" />
    <glyph glyph-name="quotesingle" unicode="'" horiz-adv-x="243" 
d="M171 459h-99v208h99v-208z" />
    <glyph glyph-name="parenleft" unicode="(" horiz-adv-x="269" 
d="M273 -128h-91c-71 120 -134 245 -134 425s63 304 134 424h91c-62 -106 -120 -254 -120 -424s58 -319 120 -425z" />
    <glyph glyph-name="parenright" unicode=")" horiz-adv-x="269" 
d="M221 296c0 -180 -62 -304 -133 -424h-91c62 106 119 254 119 424s-57 319 -119 425h91c71 -120 133 -245 133 -425z" />
    <glyph glyph-name="asterisk" unicode="*" horiz-adv-x="383" 
d="M362 511l-121 -28l85 -98l-77 -51l-57 113l-57 -113l-75 51l82 98l-120 28l29 87l114 -58l-17 127h92l-16 -127l110 58z" />
    <glyph glyph-name="plus" unicode="+" horiz-adv-x="588" 
d="M552 208h-210v-208h-95v208h-211v92h211v208h95v-208h210v-92z" />
    <glyph glyph-name="comma" unicode="," horiz-adv-x="243" 
d="M186 132l-76 -260h-90l57 260h109z" />
    <glyph glyph-name="hyphen" unicode="-" horiz-adv-x="303" 
d="M262 262h-221v96h221v-96z" />
    <glyph glyph-name="period" unicode="." horiz-adv-x="243" 
d="M179 0h-115v132h115v-132z" />
    <glyph glyph-name="slash" unicode="/" horiz-adv-x="264" 
d="M260 667l-174 -667h-81l172 667h83z" />
    <glyph glyph-name="zero" unicode="0" 
d="M447 333c0 -140 -29 -344 -203 -344c-180 0 -204 205 -204 344c0 130 29 344 204 344c182 0 203 -209 203 -344zM331 333c0 118 -5 254 -87 254c-81 0 -88 -133 -88 -254c0 -124 9 -254 88 -254c82 0 87 135 87 254z" />
    <glyph glyph-name="one" unicode="1" 
d="M335 0h-119v529l-86 -88l-57 85l163 141h99v-667z" />
    <glyph glyph-name="two" unicode="2" 
d="M422 0h-375v93l61 71c78 90 186 218 186 320c0 64 -35 100 -96 100c-45 0 -83 -17 -127 -40l-6 96c32 13 84 37 169 37c117 0 182 -78 182 -182c0 -136 -120 -273 -165 -322l-73 -80h244v-93z" />
    <glyph glyph-name="three" unicode="3" 
d="M422 188c0 -114 -77 -199 -242 -199c-34 0 -107 10 -138 27l6 99c46 -19 84 -33 130 -33c73 0 123 40 123 111c0 74 -59 107 -140 107h-36v91h36c75 0 136 26 136 103c0 62 -52 90 -109 90c-48 0 -86 -14 -123 -33l-6 96c48 17 100 30 161 30c106 0 197 -57 197 -175
c0 -73 -44 -132 -129 -153c69 -10 134 -62 134 -161z" />
    <glyph glyph-name="four" unicode="4" 
d="M460 138h-68v-138h-115v138h-247v111l227 418h135v-439h68v-90zM281 228v320l-170 -320h170z" />
    <glyph glyph-name="five" unicode="5" 
d="M436 214c0 -135 -95 -225 -233 -225c-60 0 -92 7 -146 29l7 97c43 -20 80 -33 121 -33c77 0 129 51 129 129c0 83 -55 127 -136 127c-38 0 -71 -10 -106 -21l8 350h324v-93h-219l-5 -157c19 5 39 9 59 9c131 0 197 -87 197 -212z" />
    <glyph glyph-name="six" unicode="6" 
d="M451 214c0 -130 -79 -225 -202 -225c-174 0 -204 173 -204 312c0 158 49 376 248 376c45 0 87 -9 130 -23l-6 -97c-36 17 -69 27 -108 27c-123 0 -147 -130 -153 -232c25 43 69 72 120 72c124 0 175 -102 175 -210zM335 212c0 55 -20 122 -86 122c-63 0 -84 -70 -84 -122
c0 -53 16 -133 82 -133c67 0 88 79 88 133z" />
    <glyph glyph-name="seven" unicode="7" 
d="M425 569l-199 -569h-128l210 574h-257v93h374v-98z" />
    <glyph glyph-name="eight" unicode="8" 
d="M451 174c0 -117 -93 -185 -208 -185c-119 0 -207 69 -207 186c0 86 59 135 126 174c-71 34 -108 84 -108 162c0 106 90 166 189 166s190 -59 190 -166c0 -76 -53 -130 -111 -162c66 -35 129 -81 129 -175zM323 504c0 45 -31 83 -80 83s-79 -40 -79 -83
c0 -62 40 -92 87 -117c39 27 72 67 72 117zM335 179c0 68 -47 100 -99 131c-42 -28 -84 -68 -84 -131c0 -54 34 -100 91 -100c55 0 92 46 92 100z" />
    <glyph glyph-name="nine" unicode="9" 
d="M445 367c0 -157 -39 -377 -240 -377c-45 0 -93 9 -135 23l6 98c39 -17 70 -28 111 -28c120 0 144 134 146 232c-25 -44 -70 -73 -121 -73c-120 0 -175 105 -175 215c0 121 78 221 202 221c169 0 206 -172 206 -311zM323 455c0 53 -17 133 -83 133c-70 0 -87 -74 -87 -130
c0 -55 20 -126 87 -126c63 0 83 72 83 123z" />
    <glyph glyph-name="colon" unicode=":" horiz-adv-x="243" 
d="M179 373h-115v132h115v-132zM179 0h-115v132h115v-132z" />
    <glyph glyph-name="semicolon" unicode=";" horiz-adv-x="243" 
d="M178 373h-114v132h114v-132zM186 132l-76 -260h-90l57 260h109z" />
    <glyph glyph-name="less" unicode="&#x3c;" horiz-adv-x="588" 
d="M550 0l-516 204v98l516 205v-98l-408 -156l408 -155v-98z" />
    <glyph glyph-name="equal" unicode="=" horiz-adv-x="588" 
d="M552 311h-516v92h516v-92zM552 104h-516v91h516v-91z" />
    <glyph glyph-name="greater" unicode="&#x3e;" horiz-adv-x="588" 
d="M554 204l-516 -204v98l408 155l-408 156v98l516 -205v-98z" />
    <glyph glyph-name="question" unicode="?" horiz-adv-x="390" 
d="M361 510c0 -132 -136 -178 -136 -288v-18h-103v23c0 133 115 163 115 264c0 56 -37 90 -98 90c-52 0 -83 -17 -105 -30l-6 100c26 11 77 26 135 26c112 0 198 -50 198 -167zM231 0h-115v132h115v-132z" />
    <glyph glyph-name="at" unicode="@" horiz-adv-x="654" 
d="M607 230c0 -121 -52 -230 -183 -230c-39 0 -72 24 -77 67c-15 -33 -51 -67 -90 -67c-63 0 -86 56 -86 110c0 112 81 247 206 247c28 0 56 -5 83 -16l-51 -239c-1 -5 -1 -9 -1 -14c0 -22 9 -35 33 -35c70 0 95 103 95 177c0 115 -64 219 -194 219
c-148 0 -224 -164 -224 -290c0 -139 63 -261 212 -261c71 0 118 22 168 45l6 -68c-58 -24 -105 -40 -186 -40c-172 0 -270 149 -270 324s114 353 304 353c152 0 255 -134 255 -282zM385 297c-7 2 -18 3 -25 3c-74 0 -122 -121 -122 -184c0 -29 7 -60 38 -60
c53 0 78 101 88 145z" />
    <glyph glyph-name="A" unicode="A" horiz-adv-x="579" 
d="M569 0h-127l-45 163h-219l-45 -163h-123l211 667h138zM374 252l-88 311l-87 -311h175z" />
    <glyph glyph-name="B" unicode="B" horiz-adv-x="532" 
d="M487 187c0 -123 -89 -187 -205 -187h-206v667h211c102 0 186 -60 186 -167c0 -80 -49 -135 -115 -153c72 -14 129 -71 129 -160zM353 485c0 61 -39 91 -97 91h-60v-191h59c62 0 98 39 98 100zM366 193c0 66 -39 106 -103 106h-67v-208h66c65 0 104 32 104 102z" />
    <glyph glyph-name="C" unicode="C" horiz-adv-x="516" 
d="M483 11c-34 -10 -76 -22 -143 -22c-187 0 -292 148 -292 344c0 214 134 344 289 344c72 0 118 -18 143 -29l-6 -105c-25 18 -64 36 -117 36c-119 0 -183 -112 -183 -247c0 -134 64 -244 182 -244c64 0 98 21 121 32z" />
    <glyph glyph-name="D" unicode="D" horiz-adv-x="600" 
d="M553 333c0 -192 -105 -333 -305 -333h-172v667h160c213 0 317 -129 317 -334zM426 333c0 130 -44 238 -188 238h-39v-475h46c137 0 181 111 181 237z" />
    <glyph glyph-name="E" unicode="E" horiz-adv-x="475" 
d="M432 0h-356v667h346v-96h-225v-179h211v-95h-211v-201h235v-96z" />
    <glyph glyph-name="F" unicode="F" horiz-adv-x="449" 
d="M412 571h-213v-183h203v-95h-203v-293h-123v667h336v-96z" />
    <glyph glyph-name="G" unicode="G" horiz-adv-x="589" 
d="M534 25c-55 -26 -130 -36 -189 -36c-205 0 -297 150 -297 344c0 191 116 344 315 344c63 0 113 -13 155 -30l-6 -105c-40 23 -85 40 -143 40c-134 0 -195 -122 -195 -249c0 -123 48 -249 184 -249c23 0 43 4 63 14v184h-92v90h205v-347z" />
    <glyph glyph-name="H" unicode="H" horiz-adv-x="587" 
d="M511 0h-123v295h-189v-295h-123v667h123v-273h189v273h123v-667z" />
    <glyph glyph-name="I" unicode="I" horiz-adv-x="274" 
d="M199 0h-123v667h123v-667z" />
    <glyph glyph-name="J" unicode="J" horiz-adv-x="321" 
d="M253 203c0 -118 -32 -214 -170 -214c-25 0 -54 8 -79 16l6 100c18 -7 34 -13 50 -13c65 0 70 55 70 109v466h123v-464z" />
    <glyph glyph-name="K" unicode="K" horiz-adv-x="548" 
d="M544 0h-148l-197 316v-316h-123v667h123v-289l185 289h141l-221 -313z" />
    <glyph glyph-name="L" unicode="L" horiz-adv-x="427" 
d="M409 0h-333v667h123v-568h210v-99z" />
    <glyph glyph-name="M" unicode="M" horiz-adv-x="776" 
d="M700 0h-119v559l-154 -559h-91l-154 559v-559h-106v667h179l131 -499l135 499h179v-667z" />
    <glyph glyph-name="N" unicode="N" horiz-adv-x="621" 
d="M546 0h-160l-204 525v-525h-106v667h160l203 -526v526h107v-667z" />
    <glyph glyph-name="O" unicode="O" horiz-adv-x="613" 
d="M566 333c0 -167 -69 -344 -260 -344c-199 0 -258 177 -258 344c0 164 69 344 258 344c202 0 260 -178 260 -344zM439 333c0 105 -12 252 -133 252c-115 0 -132 -149 -132 -252c0 -118 22 -252 132 -252c119 0 133 150 133 252z" />
    <glyph glyph-name="P" unicode="P" horiz-adv-x="505" 
d="M480 464c0 -132 -87 -204 -214 -204h-69v-260h-121v667h184c130 0 220 -66 220 -203zM355 464c0 75 -44 110 -117 110h-42v-221h50c73 0 109 40 109 111z" />
    <glyph glyph-name="Q" unicode="Q" horiz-adv-x="613" 
d="M566 333c0 -123 -36 -256 -136 -312l131 -149h-139l-93 119c-7 -1 -15 -2 -23 -2c-199 0 -258 177 -258 344c0 164 69 344 258 344c202 0 260 -178 260 -344zM439 333c0 105 -12 252 -133 252c-115 0 -132 -149 -132 -252c0 -118 22 -252 132 -252c119 0 133 150 133 252
z" />
    <glyph glyph-name="R" unicode="R" horiz-adv-x="539" 
d="M515 0h-130l-64 208c-15 50 -33 75 -74 75h-50v-283h-121v667h212c107 0 195 -60 195 -172c0 -86 -47 -146 -132 -162c44 -10 63 -35 81 -89zM358 478c0 66 -41 96 -105 96h-57v-197h59c67 0 103 37 103 101z" />
    <glyph glyph-name="S" unicode="S" horiz-adv-x="466" 
d="M424 189c0 -119 -91 -200 -213 -200c-51 0 -119 10 -162 29l6 107c48 -32 105 -43 138 -43c86 0 104 61 104 95c0 58 -33 80 -82 107l-61 34c-79 44 -108 98 -108 178c0 134 122 181 213 181c58 0 101 -13 139 -22l-6 -105c-34 18 -78 34 -123 34s-97 -23 -97 -81
c0 -47 26 -69 70 -94l57 -33c85 -49 125 -87 125 -187z" />
    <glyph glyph-name="T" unicode="T" horiz-adv-x="437" 
d="M425 568h-145v-568h-122v568h-145v99h412v-99z" />
    <glyph glyph-name="U" unicode="U" horiz-adv-x="581" 
d="M513 242c0 -145 -67 -253 -223 -253c-162 0 -221 102 -221 253v425h123v-442c0 -71 12 -142 98 -142c84 0 100 71 100 142v442h123v-425z" />
    <glyph glyph-name="V" unicode="V" horiz-adv-x="533" 
d="M525 667l-189 -667h-137l-191 667h132l131 -530l127 530h127z" />
    <glyph glyph-name="W" unicode="W" horiz-adv-x="796" 
d="M780 667l-140 -667h-142l-98 545l-101 -545h-143l-140 667h124l93 -526l100 526h140l99 -526l94 526h114z" />
    <glyph glyph-name="X" unicode="X" horiz-adv-x="535" 
d="M526 0h-138l-124 267l-124 -267h-131l184 354l-168 313h138l108 -227l105 227h131l-167 -313z" />
    <glyph glyph-name="Y" unicode="Y" 
d="M488 667l-184 -400v-267h-122v267l-184 400h140l110 -287l106 287h134z" />
    <glyph glyph-name="Z" unicode="Z" horiz-adv-x="464" 
d="M433 0h-402v99l266 472h-257v96h389v-98l-264 -473h268v-96z" />
    <glyph glyph-name="bracketleft" unicode="[" horiz-adv-x="269" 
d="M250 -128h-178v849h178v-81h-84v-686h84v-82z" />
    <glyph glyph-name="backslash" unicode="\" horiz-adv-x="264" 
d="M260 0h-82l-173 667h82z" />
    <glyph glyph-name="bracketright" unicode="]" horiz-adv-x="269" 
d="M198 -128h-178v82h84v686h-84v81h178v-849z" />
    <glyph glyph-name="asciicircum" unicode="^" horiz-adv-x="588" 
d="M513 242h-101l-119 313l-116 -313h-101l174 425h89z" />
    <glyph glyph-name="underscore" unicode="_" horiz-adv-x="500" 
d="M500 -125h-500v50h500v-50z" />
    <glyph glyph-name="grave" unicode="`" horiz-adv-x="241" 
d="M168 582h-74l-92 136h92z" />
    <glyph glyph-name="a" unicode="a" horiz-adv-x="481" 
d="M424 0h-110l-3 69c-33 -54 -72 -80 -135 -80c-87 0 -145 61 -145 146c0 132 133 173 244 173h34v25c0 57 -23 98 -93 98c-42 0 -95 -19 -136 -47l-6 92c48 21 99 36 161 36c136 0 185 -68 185 -175v-227c0 -45 2 -78 4 -110zM309 199v43h-17c-71 0 -150 -16 -150 -98
c0 -44 29 -74 73 -74c69 0 94 69 94 129z" />
    <glyph glyph-name="b" unicode="b" horiz-adv-x="513" 
d="M478 253c0 -107 -40 -264 -173 -264c-62 0 -107 29 -132 82l-2 -71h-109v721h116v-291c27 50 67 82 130 82c137 0 170 -149 170 -259zM356 253c0 57 -10 172 -88 172s-91 -108 -91 -172c0 -65 9 -178 91 -178c77 0 88 122 88 178z" />
    <glyph glyph-name="c" unicode="c" horiz-adv-x="402" 
d="M376 11c-39 -12 -78 -22 -119 -22c-153 0 -221 123 -221 264c0 150 89 259 228 259c38 0 73 -9 107 -22l-6 -92c-25 14 -54 22 -84 22c-86 0 -123 -88 -123 -167c0 -81 34 -172 128 -172c29 0 59 12 84 24z" />
    <glyph glyph-name="d" unicode="d" horiz-adv-x="513" 
d="M455 0h-111l-3 74c-25 -52 -69 -85 -132 -85c-135 0 -173 157 -173 264c0 110 36 259 172 259c63 0 101 -32 128 -82v291h116v-597c0 -45 0 -79 3 -124zM337 253c0 64 -13 172 -91 172s-88 -115 -88 -172c0 -56 11 -178 88 -178c82 0 91 113 91 178z" />
    <glyph glyph-name="e" unicode="e" horiz-adv-x="459" 
d="M426 223h-276c0 -76 34 -153 124 -153c44 0 90 16 127 38l6 -91c-44 -18 -97 -28 -144 -28c-162 0 -227 114 -227 264c0 129 62 259 200 259c146 0 190 -132 190 -253v-36zM317 289c0 58 -14 145 -80 145c-64 0 -87 -87 -87 -145h167z" />
    <glyph glyph-name="f" unicode="f" horiz-adv-x="310" 
d="M313 721l-6 -85c-11 5 -25 8 -38 8c-41 0 -59 -26 -59 -74v-68h89v-87h-89v-415h-115v415h-80v87h80v77c0 110 55 152 139 152c40 0 64 -7 79 -10z" />
    <glyph glyph-name="g" unicode="g" horiz-adv-x="513" 
d="M452 36c0 -156 -58 -262 -226 -262c-57 0 -112 12 -166 29l6 98c45 -24 95 -40 147 -40c116 0 123 99 123 186v33c-22 -44 -61 -80 -127 -80c-134 0 -173 140 -173 253c0 111 39 259 171 259c67 0 107 -33 132 -82v72h113v-466zM337 254c0 64 -13 172 -91 172
s-88 -116 -88 -173c0 -59 9 -167 87 -167c83 0 92 105 92 168z" />
    <glyph glyph-name="h" unicode="h" horiz-adv-x="505" 
d="M443 0h-116v334c0 47 -18 89 -69 89c-59 0 -80 -70 -80 -118v-305h-116v721h116v-293c20 48 71 84 125 84c104 0 140 -74 140 -168v-344z" />
    <glyph glyph-name="i" unicode="i" horiz-adv-x="240" 
d="M179 594h-117v110h117v-110zM178 0h-116v502h116v-502z" />
    <glyph glyph-name="j" unicode="j" horiz-adv-x="242" 
d="M181 597h-117v110h117v-110zM181 -63c0 -86 -27 -163 -127 -163c-24 0 -53 3 -71 11l6 84c9 -3 16 -6 24 -6c36 0 52 24 52 70v569h116v-565z" />
    <glyph glyph-name="k" unicode="k" horiz-adv-x="461" 
d="M456 0h-131l-147 253v-253h-116v721h116v-422l136 203h128l-162 -224z" />
    <glyph glyph-name="l" unicode="l" horiz-adv-x="240" 
d="M178 0h-116v721h116v-721z" />
    <glyph glyph-name="m" unicode="m" horiz-adv-x="746" 
d="M684 0h-115v331c0 44 -9 92 -64 92c-50 0 -75 -61 -75 -107v-316h-114v331c0 44 -9 92 -64 92c-50 0 -75 -61 -75 -107v-316h-115v378c0 41 -2 83 -3 124h106l3 -74c25 51 70 84 129 84c62 0 102 -31 122 -84c30 53 71 84 128 84c98 0 137 -73 137 -171v-341z" />
    <glyph glyph-name="n" unicode="n" horiz-adv-x="507" 
d="M445 0h-116v331c0 48 -17 92 -69 92c-57 0 -82 -59 -82 -107v-316h-116v378c0 42 -2 82 -3 124h106l3 -74c25 50 70 84 133 84c105 0 144 -80 144 -175v-337z" />
    <glyph glyph-name="o" unicode="o" horiz-adv-x="501" 
d="M465 253c0 -133 -65 -264 -214 -264c-152 0 -215 127 -215 264c0 131 73 259 215 259c153 0 214 -122 214 -259zM343 253c0 62 -9 173 -92 173c-79 0 -93 -114 -93 -173c0 -63 12 -177 93 -177s92 117 92 177z" />
    <glyph glyph-name="p" unicode="p" horiz-adv-x="513" 
d="M478 253c0 -107 -41 -264 -173 -264c-63 0 -102 31 -127 81v-286h-116v594c0 45 0 79 -3 124h111l3 -75c27 49 68 85 129 85c140 0 176 -146 176 -259zM356 253c0 57 -9 172 -87 172s-92 -105 -92 -172s9 -178 91 -178c77 0 88 121 88 178z" />
    <glyph glyph-name="q" unicode="q" horiz-adv-x="513" 
d="M452 -216h-116v286c-25 -50 -66 -81 -127 -81c-136 0 -173 157 -173 264c0 113 38 259 176 259c61 0 100 -32 128 -82v72h112v-718zM337 253c0 64 -13 173 -91 173s-88 -116 -88 -173s11 -177 88 -177c82 0 91 112 91 177z" />
    <glyph glyph-name="r" unicode="r" horiz-adv-x="330" 
d="M319 509l-6 -107c-11 2 -22 5 -33 5c-79 0 -102 -87 -102 -152v-255h-116v378c0 42 -2 82 -3 124h106l2 -83c25 54 67 93 129 93c7 0 16 -2 23 -3z" />
    <glyph glyph-name="s" unicode="s" horiz-adv-x="394" 
d="M363 145c0 -100 -76 -156 -172 -156c-53 0 -108 9 -157 26l9 97c43 -23 90 -36 134 -36c32 0 70 21 70 58c0 87 -209 76 -209 233c0 100 98 145 181 145c39 0 81 -6 119 -19l-6 -93c-38 15 -68 26 -108 26c-33 0 -69 -20 -69 -55c0 -93 208 -72 208 -226z" />
    <glyph glyph-name="t" unicode="t" horiz-adv-x="326" 
d="M307 5c-28 -11 -63 -16 -92 -16c-87 0 -124 51 -124 134v292h-72v87h74v106l113 37v-143h96v-87h-96v-271c0 -39 5 -66 50 -66c17 0 30 5 45 13z" />
    <glyph glyph-name="u" unicode="u" horiz-adv-x="503" 
d="M444 0h-106l-3 73c-25 -50 -69 -84 -132 -84c-105 0 -143 81 -143 176v337h116v-331c0 -48 16 -92 68 -92c57 0 81 60 81 108v315h116v-378c0 -42 2 -82 3 -124z" />
    <glyph glyph-name="v" unicode="v" horiz-adv-x="444" 
d="M439 502l-147 -502h-138l-148 502h125l95 -394l96 394h117z" />
    <glyph glyph-name="w" unicode="w" horiz-adv-x="703" 
d="M696 502l-129 -502h-129l-85 393l-86 -393h-129l-130 502h120l79 -393l83 393h131l84 -393l78 393h113z" />
    <glyph glyph-name="x" unicode="x" horiz-adv-x="449" 
d="M442 0h-132l-87 186l-91 -186h-125l148 260l-136 242h132l78 -165l77 165h123l-136 -243z" />
    <glyph glyph-name="y" unicode="y" horiz-adv-x="441" 
d="M434 502l-167 -565c-30 -103 -69 -163 -158 -163c-22 0 -49 5 -70 13l6 87c10 -6 29 -11 48 -11c32 0 49 37 62 70l19 66l-168 503h127l99 -368l86 368h116z" />
    <glyph glyph-name="z" unicode="z" horiz-adv-x="388" 
d="M361 0h-334v95l211 320h-203v87h322v-95l-211 -319h215v-88z" />
    <glyph glyph-name="braceleft" unicode="{" horiz-adv-x="291" 
d="M283 -128h-62c-70 0 -125 37 -125 122v165c0 84 -35 104 -72 104v68c37 0 72 21 72 101v167c0 86 57 122 125 122h62v-65h-38c-41 0 -52 -21 -52 -68v-175c0 -85 -53 -110 -92 -116c39 -6 92 -25 92 -119v-172c0 -47 11 -68 52 -68h38v-66z" />
    <glyph glyph-name="bar" unicode="|" horiz-adv-x="208" 
d="M148 -216h-87v992h87v-992z" />
    <glyph glyph-name="braceright" unicode="}" horiz-adv-x="292" 
d="M269 263c-37 0 -72 -20 -72 -104v-165c0 -85 -55 -122 -125 -122h-62v66h38c41 0 53 21 53 68v172c0 94 53 113 92 119c-39 6 -92 31 -92 116v175c0 47 -12 68 -53 68h-38v65h62c68 0 125 -36 125 -122v-167c0 -80 35 -101 72 -101v-68z" />
    <glyph glyph-name="asciitilde" unicode="~" horiz-adv-x="588" 
d="M564 337c-5 -75 -45 -164 -132 -164c-90 0 -193 69 -273 69c-42 0 -66 -33 -71 -71h-64c7 75 47 163 135 163s193 -68 272 -68c44 0 62 33 70 71h63z" />
    <glyph glyph-name="Adieresis" unicode="&#xc4;" horiz-adv-x="579" 
d="M410 737h-85v110h85v-110zM254 737h-85v110h85v-110zM569 0h-127l-45 163h-219l-45 -163h-123l211 667h138zM374 252l-88 311l-87 -311h175z" />
    <glyph glyph-name="Aring" unicode="&#xc5;" horiz-adv-x="579" 
d="M388 791c0 -55 -43 -97 -98 -97s-99 42 -99 97s45 98 99 98s98 -43 98 -98zM569 0h-127l-45 163h-219l-45 -163h-123l211 667h138zM343 791c0 30 -23 54 -53 54c-29 0 -53 -25 -53 -54c0 -30 23 -53 53 -53s53 23 53 53zM374 252l-88 311l-87 -311h175z" />
    <glyph glyph-name="Ccedilla" unicode="&#xc7;" horiz-adv-x="516" 
d="M483 11c-33 -10 -75 -22 -140 -22l-34 -43c8 3 19 5 34 5c41 0 73 -28 73 -70c0 -52 -53 -81 -109 -81c-39 0 -80 10 -95 19l15 38c13 -5 35 -15 67 -15c29 0 50 12 50 39c0 20 -18 32 -39 32c-19 0 -28 -3 -37 -7l-16 22l47 63c-163 19 -251 161 -251 342
c0 214 134 344 289 344c72 0 118 -18 143 -29l-6 -105c-25 18 -64 36 -117 36c-119 0 -183 -112 -183 -247c0 -134 64 -244 182 -244c64 0 98 21 121 32z" />
    <glyph glyph-name="Eacute" unicode="&#xc9;" horiz-adv-x="475" 
d="M363 860l-91 -136h-74l73 136h92zM432 0h-356v667h346v-96h-225v-179h211v-95h-211v-201h235v-96z" />
    <glyph glyph-name="Ntilde" unicode="&#xd1;" horiz-adv-x="621" 
d="M455 852c0 -49 -26 -120 -84 -120c-45 0 -79 43 -109 43c-19 0 -31 -27 -31 -44h-60c2 49 28 119 87 119c45 0 82 -42 109 -42c20 0 28 28 28 44h60zM546 0h-160l-204 525v-525h-106v667h160l203 -526v526h107v-667z" />
    <glyph glyph-name="Odieresis" unicode="&#xd6;" horiz-adv-x="613" 
d="M427 737h-85v110h85v-110zM270 737h-85v110h85v-110zM566 333c0 -167 -69 -344 -260 -344c-199 0 -258 177 -258 344c0 164 69 344 258 344c202 0 260 -178 260 -344zM439 333c0 105 -12 252 -133 252c-115 0 -132 -149 -132 -252c0 -118 22 -252 132 -252
c119 0 133 150 133 252z" />
    <glyph glyph-name="Udieresis" unicode="&#xdc;" horiz-adv-x="581" 
d="M411 737h-85v110h85v-110zM255 737h-85v110h85v-110zM513 242c0 -145 -67 -253 -223 -253c-162 0 -221 102 -221 253v425h123v-442c0 -71 12 -142 98 -142c84 0 100 71 100 142v442h123v-425z" />
    <glyph glyph-name="aacute" unicode="&#xe1;" horiz-adv-x="481" 
d="M348 718l-92 -136h-73l74 136h91zM424 0h-110l-3 69c-33 -54 -72 -80 -135 -80c-87 0 -145 61 -145 146c0 132 133 173 244 173h34v25c0 57 -23 98 -93 98c-42 0 -95 -19 -136 -47l-6 92c48 21 99 36 161 36c136 0 185 -68 185 -175v-227c0 -45 2 -78 4 -110zM309 199v43
h-17c-71 0 -150 -16 -150 -98c0 -44 29 -74 73 -74c69 0 94 69 94 129z" />
    <glyph glyph-name="agrave" unicode="&#xe0;" horiz-adv-x="481" 
d="M289 582h-73l-93 136h92zM424 0h-110l-3 69c-33 -54 -72 -80 -135 -80c-87 0 -145 61 -145 146c0 132 133 173 244 173h34v25c0 57 -23 98 -93 98c-42 0 -95 -19 -136 -47l-6 92c48 21 99 36 161 36c136 0 185 -68 185 -175v-227c0 -45 2 -78 4 -110zM309 199v43h-17
c-71 0 -150 -16 -150 -98c0 -44 29 -74 73 -74c69 0 94 69 94 129z" />
    <glyph glyph-name="acircumflex" unicode="&#xe2;" horiz-adv-x="481" 
d="M369 582h-82l-52 87l-52 -87h-81l91 136h84zM424 0h-110l-3 69c-33 -54 -72 -80 -135 -80c-87 0 -145 61 -145 146c0 132 133 173 244 173h34v25c0 57 -23 98 -93 98c-42 0 -95 -19 -136 -47l-6 92c48 21 99 36 161 36c136 0 185 -68 185 -175v-227c0 -45 2 -78 4 -110z
M309 199v43h-17c-71 0 -150 -16 -150 -98c0 -44 29 -74 73 -74c69 0 94 69 94 129z" />
    <glyph glyph-name="adieresis" unicode="&#xe4;" horiz-adv-x="481" 
d="M358 594h-85v110h85v-110zM201 594h-85v110h85v-110zM424 0h-110l-3 69c-33 -54 -72 -80 -135 -80c-87 0 -145 61 -145 146c0 132 133 173 244 173h34v25c0 57 -23 98 -93 98c-42 0 -95 -19 -136 -47l-6 92c48 21 99 36 161 36c136 0 185 -68 185 -175v-227
c0 -45 2 -78 4 -110zM309 199v43h-17c-71 0 -150 -16 -150 -98c0 -44 29 -74 73 -74c69 0 94 69 94 129z" />
    <glyph glyph-name="atilde" unicode="&#xe3;" horiz-adv-x="481" 
d="M381 711c0 -49 -26 -120 -84 -120c-45 0 -79 42 -109 42c-19 0 -31 -26 -31 -43h-59c2 50 27 119 86 119c45 0 83 -42 110 -42c20 0 28 29 28 44h59zM424 0h-110l-3 69c-33 -54 -72 -80 -135 -80c-87 0 -145 61 -145 146c0 132 133 173 244 173h34v25c0 57 -23 98 -93 98
c-42 0 -95 -19 -136 -47l-6 92c48 21 99 36 161 36c136 0 185 -68 185 -175v-227c0 -45 2 -78 4 -110zM309 199v43h-17c-71 0 -150 -16 -150 -98c0 -44 29 -74 73 -74c69 0 94 69 94 129z" />
    <glyph glyph-name="aring" unicode="&#xe5;" horiz-adv-x="481" 
d="M335 650c0 -55 -43 -97 -98 -97s-99 42 -99 97s45 98 99 98s98 -43 98 -98zM424 0h-110l-3 69c-33 -54 -72 -80 -135 -80c-87 0 -145 61 -145 146c0 132 133 173 244 173h34v25c0 57 -23 98 -93 98c-42 0 -95 -19 -136 -47l-6 92c48 21 99 36 161 36
c136 0 185 -68 185 -175v-227c0 -45 2 -78 4 -110zM289 650c0 30 -22 54 -52 54c-29 0 -54 -25 -54 -54c0 -30 24 -53 54 -53s52 23 52 53zM309 199v43h-17c-71 0 -150 -16 -150 -98c0 -44 29 -74 73 -74c69 0 94 69 94 129z" />
    <glyph glyph-name="ccedilla" unicode="&#xe7;" horiz-adv-x="402" 
d="M376 11c-37 -12 -74 -21 -113 -22l-33 -43c8 3 18 5 33 5c41 0 73 -28 73 -70c0 -52 -52 -81 -108 -81c-39 0 -81 10 -96 19l15 38c13 -5 36 -15 68 -15c29 0 49 12 49 39c0 20 -18 32 -39 32c-19 0 -28 -3 -37 -7l-15 22l46 63c-126 18 -183 133 -183 262
c0 150 89 259 228 259c38 0 73 -9 107 -22l-6 -92c-25 14 -54 22 -84 22c-86 0 -123 -88 -123 -167c0 -81 34 -172 128 -172c29 0 59 12 84 24z" />
    <glyph glyph-name="eacute" unicode="&#xe9;" horiz-adv-x="459" 
d="M353 718l-92 -136h-74l74 136h92zM426 223h-276c0 -76 34 -153 124 -153c44 0 90 16 127 38l6 -91c-44 -18 -97 -28 -144 -28c-162 0 -227 114 -227 264c0 129 62 259 200 259c146 0 190 -132 190 -253v-36zM317 289c0 58 -14 145 -80 145c-64 0 -87 -87 -87 -145h167z
" />
    <glyph glyph-name="egrave" unicode="&#xe8;" horiz-adv-x="459" 
d="M284 582h-73l-92 136h91zM426 223h-276c0 -76 34 -153 124 -153c44 0 90 16 127 38l6 -91c-44 -18 -97 -28 -144 -28c-162 0 -227 114 -227 264c0 129 62 259 200 259c146 0 190 -132 190 -253v-36zM317 289c0 58 -14 145 -80 145c-64 0 -87 -87 -87 -145h167z" />
    <glyph glyph-name="ecircumflex" unicode="&#xea;" horiz-adv-x="459" 
d="M367 582h-82l-52 87l-51 -87h-82l92 136h83zM426 223h-276c0 -76 34 -153 124 -153c44 0 90 16 127 38l6 -91c-44 -18 -97 -28 -144 -28c-162 0 -227 114 -227 264c0 129 62 259 200 259c146 0 190 -132 190 -253v-36zM317 289c0 58 -14 145 -80 145
c-64 0 -87 -87 -87 -145h167z" />
    <glyph glyph-name="edieresis" unicode="&#xeb;" horiz-adv-x="459" 
d="M355 594h-86v110h86v-110zM198 594h-85v110h85v-110zM426 223h-276c0 -76 34 -153 124 -153c44 0 90 16 127 38l6 -91c-44 -18 -97 -28 -144 -28c-162 0 -227 114 -227 264c0 129 62 259 200 259c146 0 190 -132 190 -253v-36zM317 289c0 58 -14 145 -80 145
c-64 0 -87 -87 -87 -145h167z" />
    <glyph glyph-name="iacute" unicode="&#xed;" horiz-adv-x="240" 
d="M238 718l-92 -136h-73l74 136h91zM178 0h-116v502h116v-502z" />
    <glyph glyph-name="igrave" unicode="&#xec;" horiz-adv-x="240" 
d="M168 582h-74l-92 136h92zM178 0h-116v502h116v-502z" />
    <glyph glyph-name="icircumflex" unicode="&#xee;" horiz-adv-x="240" 
d="M253 582h-81l-52 87l-52 -87h-81l91 136h83zM177 0h-115v502h115v-502z" />
    <glyph glyph-name="idieresis" unicode="&#xef;" horiz-adv-x="240" 
d="M241 594h-86v110h86v-110zM85 594h-85v110h85v-110zM178 0h-116v502h116v-502z" />
    <glyph glyph-name="ntilde" unicode="&#xf1;" horiz-adv-x="507" 
d="M394 711c0 -49 -26 -120 -84 -120c-45 0 -79 42 -109 42c-19 0 -31 -26 -31 -43h-59c2 50 27 119 86 119c45 0 82 -42 109 -42c20 0 29 29 29 44h59zM445 0h-116v331c0 45 -14 92 -69 92c-59 0 -82 -58 -82 -108v-315h-116v378c0 42 -2 82 -3 124h106l2 -73
c28 52 74 83 134 83c105 0 144 -79 144 -175v-337z" />
    <glyph glyph-name="oacute" unicode="&#xf3;" horiz-adv-x="501" 
d="M362 718l-92 -136h-73l74 136h91zM465 253c0 -133 -65 -264 -214 -264c-152 0 -215 127 -215 264c0 131 73 259 215 259c153 0 214 -122 214 -259zM343 253c0 62 -9 173 -92 173c-79 0 -93 -114 -93 -173c0 -63 12 -177 93 -177s92 117 92 177z" />
    <glyph glyph-name="ograve" unicode="&#xf2;" horiz-adv-x="501" 
d="M305 582h-74l-92 136h92zM465 253c0 -133 -65 -264 -214 -264c-152 0 -215 127 -215 264c0 131 73 259 215 259c153 0 214 -122 214 -259zM343 253c0 62 -9 173 -92 173c-79 0 -93 -114 -93 -173c0 -63 12 -177 93 -177s92 117 92 177z" />
    <glyph glyph-name="ocircumflex" unicode="&#xf4;" horiz-adv-x="501" 
d="M385 582h-82l-52 87l-52 -87h-81l91 136h84zM465 253c0 -133 -65 -264 -214 -264c-152 0 -215 127 -215 264c0 131 73 259 215 259c153 0 214 -122 214 -259zM343 253c0 62 -9 173 -92 173c-79 0 -93 -114 -93 -173c0 -63 12 -177 93 -177s92 117 92 177z" />
    <glyph glyph-name="odieresis" unicode="&#xf6;" horiz-adv-x="501" 
d="M372 594h-85v110h85v-110zM215 594h-85v110h85v-110zM465 253c0 -133 -65 -264 -214 -264c-152 0 -215 127 -215 264c0 131 73 259 215 259c153 0 214 -122 214 -259zM343 253c0 62 -9 173 -92 173c-79 0 -93 -114 -93 -173c0 -63 12 -177 93 -177s92 117 92 177z" />
    <glyph glyph-name="otilde" unicode="&#xf5;" horiz-adv-x="501" 
d="M394 711c0 -49 -27 -120 -85 -120c-45 0 -78 42 -108 42c-19 0 -31 -26 -31 -43h-59c2 50 27 119 86 119c45 0 82 -42 109 -42c20 0 28 29 28 44h60zM465 253c0 -133 -65 -264 -214 -264c-152 0 -215 127 -215 264c0 131 73 259 215 259c153 0 214 -122 214 -259z
M343 253c0 62 -9 173 -92 173c-79 0 -93 -114 -93 -173c0 -63 12 -177 93 -177s92 117 92 177z" />
    <glyph glyph-name="uacute" unicode="&#xfa;" horiz-adv-x="503" 
d="M361 718l-92 -136h-73l74 136h91zM444 0h-106l-3 73c-28 -52 -70 -84 -132 -84c-104 0 -143 77 -143 176v337h116v-330c0 -47 14 -93 69 -93c56 0 80 52 80 107v316h116v-378c0 -42 2 -82 3 -124z" />
    <glyph glyph-name="ugrave" unicode="&#xf9;" horiz-adv-x="503" 
d="M305 582h-74l-92 136h91zM444 0h-106l-3 73c-28 -52 -70 -84 -132 -84c-104 0 -143 77 -143 176v337h116v-330c0 -47 14 -93 69 -93c56 0 80 52 80 107v316h116v-378c0 -42 2 -82 3 -124z" />
    <glyph glyph-name="ucircumflex" unicode="&#xfb;" horiz-adv-x="503" 
d="M384 582h-82l-52 87l-52 -87h-81l91 136h84zM444 0h-106l-3 73c-28 -52 -70 -84 -132 -84c-104 0 -143 77 -143 176v337h116v-330c0 -47 14 -93 69 -93c56 0 80 52 80 107v316h116v-378c0 -42 2 -82 3 -124z" />
    <glyph glyph-name="udieresis" unicode="&#xfc;" horiz-adv-x="503" 
d="M371 594h-85v110h85v-110zM215 594h-86v110h86v-110zM444 0h-106l-3 73c-28 -52 -70 -84 -132 -84c-104 0 -143 77 -143 176v337h116v-330c0 -47 14 -93 69 -93c56 0 80 52 80 107v316h116v-378c0 -42 2 -82 3 -124z" />
    <glyph glyph-name="dagger" unicode="&#x2020;" 
d="M434 413h-134v-541h-113v541h-134v96h134v212h113v-212h134v-96z" />
    <glyph glyph-name="degree" unicode="&#xb0;" horiz-adv-x="400" 
d="M346 531c0 -81 -65 -146 -146 -146s-146 65 -146 146c0 80 65 146 146 146s146 -66 146 -146zM285 531c0 46 -38 85 -85 85c-46 0 -84 -39 -84 -85c0 -47 37 -84 84 -84s85 37 85 84z" />
    <glyph glyph-name="cent" unicode="&#xa2;" 
d="M395 112c-33 -11 -62 -19 -95 -21v-91h-54v93c-115 18 -168 124 -168 243c0 124 63 219 168 238v93h54v-90c32 -1 62 -9 91 -20l-6 -89c-24 13 -52 22 -79 22c-80 0 -114 -82 -114 -154c0 -75 28 -158 118 -158c27 0 55 11 79 23z" />
    <glyph glyph-name="sterling" unicode="&#xa3;" 
d="M449 652l-6 -90c-28 15 -62 25 -94 25c-61 0 -113 -45 -113 -123v-72h144v-83h-144v-223h207v-86h-391v86h70v223h-65v83h65v77c0 131 83 208 211 208c39 0 80 -8 116 -25z" />
    <glyph glyph-name="section" unicode="&#xa7;" 
d="M422 273c0 -64 -40 -102 -73 -131c33 -24 59 -64 59 -113c0 -79 -64 -153 -191 -153c-52 0 -101 17 -147 35l6 91c37 -21 89 -41 132 -41c47 0 86 28 86 69c0 35 -25 57 -61 78l-76 44c-49 28 -96 71 -96 134s50 115 85 130c-47 32 -65 67 -65 120c0 71 65 141 179 141
c52 0 112 -15 135 -26l-6 -89c-40 15 -78 30 -118 30c-34 0 -75 -19 -75 -60c0 -33 25 -54 60 -76l66 -42c60 -38 100 -75 100 -141zM321 261c0 29 -22 57 -54 79l-63 43c-20 -16 -42 -49 -42 -75c0 -31 19 -59 47 -77l77 -48c21 23 35 47 35 78z" />
    <glyph glyph-name="bullet" unicode="&#x2022;" 
d="M366 310c0 -68 -55 -123 -123 -123s-122 55 -122 123s54 124 122 124s123 -56 123 -124z" />
    <glyph glyph-name="paragraph" unicode="&#xb6;" horiz-adv-x="588" 
d="M496 -108h-81v710h-96v-710h-82v430c-97 1 -177 64 -177 173c0 125 92 171 219 171h217v-774z" />
    <glyph glyph-name="germandbls" unicode="&#xdf;" horiz-adv-x="541" 
d="M514 144c0 -90 -53 -155 -145 -155c-53 0 -77 8 -126 26l6 89c28 -17 56 -31 91 -31c34 0 63 25 63 61c0 76 -161 90 -161 239c0 79 53 135 130 142c0 65 -30 132 -100 132s-94 -79 -94 -137v-510h-116v509c0 128 88 222 209 222c134 0 211 -98 211 -229v-49
c-40 0 -129 -12 -129 -70c0 -89 161 -97 161 -239z" />
    <glyph glyph-name="registered" unicode="&#xae;" horiz-adv-x="783" 
d="M736 334c0 -190 -154 -345 -344 -345s-344 155 -344 345s154 343 344 343s344 -153 344 -343zM661 334c0 150 -118 276 -269 276s-270 -125 -270 -276c0 -150 119 -278 270 -278s269 128 269 278zM557 162h-88l-39 100c-13 34 -24 46 -66 46h-31v-146h-84v357h157
c66 0 131 -24 131 -95c0 -49 -41 -81 -90 -89c35 -6 51 -22 63 -52zM451 416c0 40 -40 47 -80 47h-39v-99h39c39 0 80 9 80 52z" />
    <glyph glyph-name="copyright" unicode="&#xa9;" horiz-adv-x="783" 
d="M736 334c0 -190 -154 -345 -344 -345s-344 155 -344 345s154 343 344 343s344 -153 344 -343zM661 334c0 151 -118 276 -269 276s-270 -125 -270 -276s119 -278 270 -278s269 127 269 278zM519 167c-29 -11 -62 -16 -94 -16c-124 0 -210 66 -210 183
c0 113 92 183 210 183c31 0 65 -6 94 -14l-4 -64c-23 9 -51 15 -77 15c-82 0 -134 -47 -134 -120c0 -74 48 -120 132 -120c28 0 54 7 80 17z" />
    <glyph glyph-name="trademark" unicode="&#x2122;" horiz-adv-x="803" 
d="M754 266h-84v330l-95 -330h-65l-95 330v-330h-75v401h126l80 -289l82 289h126v-401zM282 604h-93v-338h-87v338h-94v63h274v-63z" />
    <glyph glyph-name="acute" unicode="&#xb4;" horiz-adv-x="240" 
d="M220 718l-92 -136h-73l74 136h91z" />
    <glyph glyph-name="dieresis" unicode="&#xa8;" horiz-adv-x="240" 
d="M241 594h-86v110h86v-110zM85 594h-85v110h85v-110z" />
    <glyph glyph-name="notequal" unicode="&#x2260;" horiz-adv-x="588" 
d="M552 104h-287l-76 -150l-81 41l58 109h-130v91h176l60 116h-236v92h283l78 151l79 -40l-57 -111h133v-92h-180l-60 -116h240v-91z" />
    <glyph glyph-name="AE" unicode="&#xc6;" horiz-adv-x="776" 
d="M732 0h-348v162h-188l-72 -162h-130l311 667h417v-96h-218v-179h205v-95h-205v-201h228v-96zM384 251v333l-151 -333h151z" />
    <glyph glyph-name="Oslash" unicode="&#xd8;" horiz-adv-x="615" 
d="M592 665l-78 -101c38 -65 52 -150 52 -231c0 -167 -69 -344 -260 -344c-81 0 -138 30 -178 76l-67 -88l-38 30l75 97c-37 65 -50 148 -50 229c0 164 69 344 258 344c80 0 138 -28 178 -73l69 91zM412 514c-19 42 -48 71 -105 71c-115 0 -133 -149 -133 -252
c0 -37 3 -80 13 -117zM439 333c0 37 -2 82 -13 121l-224 -297c20 -46 47 -76 104 -76c119 0 133 150 133 252z" />
    <glyph glyph-name="infinity" unicode="&#x221e;" horiz-adv-x="849" 
d="M773 257c0 -100 -67 -179 -170 -179c-84 0 -131 50 -176 113c-45 -61 -94 -111 -176 -111c-102 0 -174 76 -174 177s67 176 170 176c83 0 132 -56 176 -118c48 63 91 116 177 116c103 0 173 -72 173 -174zM695 255c0 51 -40 95 -92 95c-51 0 -100 -62 -129 -99
c32 -43 70 -93 129 -93c54 0 92 45 92 97zM376 259c-30 40 -74 94 -129 94c-53 0 -92 -45 -92 -97s37 -94 91 -94c59 0 96 57 130 97z" />
    <glyph glyph-name="plusminus" unicode="&#xb1;" horiz-adv-x="588" 
d="M552 273h-210v-164h-95v164h-211v91h211v168h95v-168h210v-91zM552 -25h-516v91h516v-91z" />
    <glyph glyph-name="lessequal" unicode="&#x2264;" horiz-adv-x="588" 
d="M551 92l-516 181v94l516 176v-97l-389 -126l389 -132v-96zM551 -36h-516v91h516v-91z" />
    <glyph glyph-name="greaterequal" unicode="&#x2265;" horiz-adv-x="588" 
d="M553 273l-516 -181v96l389 132l-389 126v97l516 -176v-94zM553 -36h-516v91h516v-91z" />
    <glyph glyph-name="yen" unicode="&#xa5;" 
d="M464 667l-135 -312h100v-80h-133v-71h133v-80h-133v-124h-106v124h-131v80h131v71h-131v80h98l-134 312h112l113 -281l107 281h109z" />
    <glyph glyph-name="mu" unicode="&#x3bc;" 
d="M436 0h-105l-3 81c-17 -38 -52 -92 -105 -92c-25 0 -48 11 -63 30v-235h-108v718h116v-331c0 -47 16 -92 68 -92c58 0 81 61 81 108v316h116v-378c0 -42 1 -83 3 -125z" />
    <glyph glyph-name="partialdiff" unicode="&#x2202;" horiz-adv-x="588" 
d="M516 361c0 -152 -44 -374 -237 -374c-131 0 -213 106 -213 231c0 120 79 215 204 215c58 0 108 -25 150 -63c1 14 0 31 -1 45c-6 91 -33 235 -150 235c-47 0 -88 -21 -119 -55l-51 60c49 43 97 65 162 65c197 0 255 -198 255 -359zM418 299c-34 36 -78 66 -130 66
c-89 0 -130 -76 -130 -156c0 -73 40 -155 123 -155c112 0 132 162 137 245z" />
    <glyph glyph-name="summation" unicode="&#x2211;" horiz-adv-x="750" 
d="M689 -200h-618v85l278 423l-262 409v83h587v-90h-466l253 -402l-271 -415h499v-93z" />
    <glyph glyph-name="product" unicode="&#x220f;" horiz-adv-x="750" 
d="M665 -200h-95v907h-389v-907h-95v1000h579v-1000z" />
    <glyph glyph-name="pi" unicode="&#x3c0;" horiz-adv-x="650" 
d="M557 12c-27 -15 -50 -22 -81 -22c-75 0 -94 47 -94 111v296h-149v-397h-94v397h-70v87h488v-87h-81v-267c0 -26 -2 -57 32 -57c16 0 34 8 49 15v-76z" />
    <glyph glyph-name="integral" unicode="&#x222b;" 
d="M425 773l-6 -89c-15 6 -32 8 -48 8c-60 0 -67 -59 -67 -89v-652c0 -98 -32 -178 -152 -178c-29 0 -62 2 -89 12l6 89c15 -6 32 -8 48 -8c60 0 68 59 68 89v652c0 98 31 178 151 178c29 0 62 -2 89 -12z" />
    <glyph glyph-name="ordfeminine" unicode="&#xaa;" horiz-adv-x="330" 
d="M293 369h-81l-2 41c-21 -33 -47 -48 -88 -48c-65 0 -96 42 -96 90c0 82 89 106 160 106h23v10c0 29 -15 51 -59 51c-27 0 -61 -10 -89 -27l-4 64c31 12 66 21 107 21c92 0 126 -42 126 -107v-135c0 -28 2 -47 3 -66zM209 493v17h-11c-47 0 -91 -14 -91 -52
c0 -30 26 -38 44 -38c43 0 58 38 58 73z" />
    <glyph glyph-name="ordmasculine" unicode="&#xba;" horiz-adv-x="330" 
d="M309 521c0 -82 -46 -159 -144 -159c-100 0 -143 74 -143 159c0 80 48 156 143 156c99 0 144 -72 144 -156zM221 521c0 33 -6 95 -56 95c-48 0 -55 -63 -55 -95c0 -34 7 -97 55 -97s56 65 56 97z" />
    <glyph glyph-name="Omega" unicode="&#x3a9;" horiz-adv-x="750" 
d="M688 405c0 -117 -72 -237 -192 -260v-56h191v-89h-276v192c109 6 171 102 171 204c0 115 -89 210 -206 210s-208 -96 -208 -212c0 -103 63 -196 171 -202v-192h-276v89h192v56c-120 26 -192 141 -192 260c0 176 148 290 314 290c164 0 311 -116 311 -290z" />
    <glyph glyph-name="ae" unicode="&#xe6;" horiz-adv-x="719" 
d="M686 232h-275c0 -76 30 -162 119 -162c43 0 91 16 127 38l6 -91c-46 -18 -93 -28 -143 -28c-110 0 -141 38 -179 100c-29 -59 -79 -100 -169 -100s-141 59 -141 146c0 118 119 164 228 164h43v22c0 50 -18 110 -86 110c-46 0 -90 -19 -136 -47l-6 92c49 22 96 36 159 36
c67 0 119 -30 137 -73c26 40 66 73 125 73c151 0 191 -128 191 -246v-34zM577 299c0 56 -10 135 -81 135c-66 0 -85 -83 -85 -135h166zM302 199v33h-19c-61 0 -141 -19 -141 -93c0 -42 27 -71 69 -71c69 0 91 73 91 131z" />
    <glyph glyph-name="oslash" unicode="&#xf8;" horiz-adv-x="501" 
d="M471 502l-55 -71c36 -49 49 -115 49 -178c0 -133 -65 -264 -214 -264c-56 0 -100 19 -135 52l-53 -68l-33 26l57 74c-37 51 -51 118 -51 180c0 131 73 259 215 259c56 0 101 -18 135 -50l51 67zM323 379c-13 27 -37 47 -72 47c-79 0 -93 -114 -93 -173c0 -23 2 -51 9 -76
zM343 253c0 21 -2 49 -8 73l-155 -201c13 -28 36 -49 71 -49c80 0 92 114 92 177z" />
    <glyph glyph-name="questiondown" unicode="&#xbf;" horiz-adv-x="390" 
d="M273 371h-114v131h114v-131zM361 -149c-26 -11 -76 -26 -134 -26c-112 0 -199 51 -199 168c0 132 136 177 136 287v19h103v-23c0 -133 -114 -163 -114 -264c0 -56 36 -90 97 -90c52 0 83 17 105 30z" />
    <glyph glyph-name="exclamdown" unicode="&#xa1;" horiz-adv-x="277" 
d="M196 371h-114v131h114v-131zM200 -165h-123l15 464h94z" />
    <glyph glyph-name="logicalnot" unicode="&#xac;" horiz-adv-x="588" 
d="M550 104h-95v207h-421v92h516v-299z" />
    <glyph glyph-name="radical" unicode="&#x221a;" horiz-adv-x="588" 
d="M553 800l-195 -1000h-86l-152 326l-50 -23l-35 69l134 62l134 -299l159 865h91z" />
    <glyph glyph-name="florin" unicode="&#x192;" 
d="M447 663l-9 -87c-13 7 -27 11 -42 11c-51 0 -67 -78 -77 -126l-13 -61h89v-88h-107l-68 -322c-20 -96 -59 -217 -159 -217c-25 0 -50 3 -73 11l8 86c10 -4 22 -7 33 -7c51 0 72 96 80 136l65 313h-89v88h107l16 71c25 109 58 206 160 206c27 0 54 -4 79 -14z" />
    <glyph glyph-name="approxequal" unicode="&#x2248;" horiz-adv-x="588" 
d="M564 435c-5 -76 -47 -164 -135 -164c-90 0 -190 69 -271 69c-40 0 -66 -34 -70 -72h-64c7 76 46 165 136 165s187 -68 271 -68c43 0 63 31 70 70h63zM564 238c-5 -76 -47 -163 -135 -163c-90 0 -190 69 -271 69c-40 0 -66 -33 -70 -71h-64c7 76 46 164 136 164
s187 -68 271 -68c43 0 63 30 70 69h63z" />
    <glyph glyph-name="Delta" unicode="&#x394;" horiz-adv-x="750" 
d="M704 0h-658l269 685h111zM570 88l-199 494l-193 -494h392z" />
    <glyph glyph-name="guillemotleft" unicode="&#xab;" horiz-adv-x="437" 
d="M408 55h-95l-110 202l109 203h96l-102 -203zM237 55h-96l-109 202l109 203h96l-103 -203z" />
    <glyph glyph-name="guillemotright" unicode="&#xbb;" horiz-adv-x="437" 
d="M406 258l-110 -203h-96l103 203l-103 202h96zM235 258l-110 -203h-96l103 203l-103 202h96z" />
    <glyph glyph-name="ellipsis" unicode="&#x2026;" horiz-adv-x="1000" 
d="M891 0h-115v132h115v-132zM558 0h-115v132h115v-132zM225 0h-115v132h115v-132z" />
    <glyph glyph-name="nbspace" unicode="&#xa0;" horiz-adv-x="243" 
 />
    <glyph glyph-name="Agrave" unicode="&#xc0;" horiz-adv-x="579" 
d="M340 724h-73l-93 136h92zM569 0h-127l-45 163h-219l-45 -163h-123l211 667h138zM374 252l-88 311l-87 -311h175z" />
    <glyph glyph-name="Atilde" unicode="&#xc3;" horiz-adv-x="579" 
d="M432 852c0 -49 -26 -119 -84 -119c-45 0 -79 42 -109 42c-19 0 -31 -27 -31 -44h-60c2 50 28 120 87 120c45 0 82 -43 109 -43c20 0 28 29 28 44h60zM569 0h-127l-45 163h-219l-45 -163h-123l211 667h138zM374 252l-88 311l-87 -311h175z" />
    <glyph glyph-name="Otilde" unicode="&#xd5;" horiz-adv-x="613" 
d="M448 852c0 -49 -26 -119 -84 -119c-45 0 -79 42 -109 42c-19 0 -31 -27 -31 -44h-60c2 50 28 120 87 120c45 0 82 -43 109 -43c20 0 28 29 28 44h60zM566 333c0 -167 -69 -344 -260 -344c-199 0 -258 177 -258 344c0 164 69 344 258 344c202 0 260 -178 260 -344z
M439 333c0 105 -12 252 -133 252c-115 0 -132 -149 -132 -252c0 -118 22 -252 132 -252c119 0 133 150 133 252z" />
    <glyph glyph-name="OE" unicode="&#x152;" horiz-adv-x="783" 
d="M739 0h-303c-39 0 -85 -11 -127 -11c-202 0 -261 173 -261 344c0 164 66 344 261 344c41 0 81 -10 127 -10h293v-96h-218v-179h205v-95h-205v-201h228v-96zM391 95v477c-22 8 -48 13 -79 13c-116 0 -137 -139 -137 -252c0 -116 22 -252 137 -252c33 0 56 3 79 14z" />
    <glyph glyph-name="oe" unicode="&#x153;" horiz-adv-x="763" 
d="M729 223h-275c0 -76 34 -153 124 -153c44 0 90 16 127 38l6 -91c-44 -18 -97 -28 -144 -28c-80 0 -133 27 -169 82c-30 -49 -83 -82 -147 -82c-152 0 -215 127 -215 264c0 131 73 259 215 259c66 0 116 -28 147 -79c27 46 79 79 141 79c146 0 190 -132 190 -253v-36z
M621 289c0 58 -14 145 -80 145c-64 0 -87 -87 -87 -145h167zM343 253c0 63 -9 175 -92 175c-79 0 -93 -115 -93 -175c0 -64 12 -180 93 -180s92 119 92 180z" />
    <glyph glyph-name="endash" unicode="&#x2013;" horiz-adv-x="500" 
d="M500 268h-500v84h500v-84z" />
    <glyph glyph-name="emdash" unicode="&#x2014;" horiz-adv-x="1000" 
d="M1000 268h-1000v84h1000v-84z" />
    <glyph glyph-name="quotedblleft" unicode="&#x201c;" horiz-adv-x="410" 
d="M369 721l-57 -260h-109l76 260h90zM202 721l-57 -260h-109l76 260h90z" />
    <glyph glyph-name="quotedblright" unicode="&#x201d;" horiz-adv-x="410" 
d="M374 721l-76 -260h-90l57 260h109zM207 721l-76 -260h-90l57 260h109z" />
    <glyph glyph-name="quoteleft" unicode="&#x2018;" horiz-adv-x="243" 
d="M202 721l-57 -260h-109l76 260h90z" />
    <glyph glyph-name="quoteright" unicode="&#x2019;" horiz-adv-x="243" 
d="M207 721l-76 -260h-90l57 260h109z" />
    <glyph glyph-name="divide" unicode="&#xf7;" horiz-adv-x="588" 
d="M360 441c0 -37 -29 -66 -66 -66c-36 0 -66 29 -66 66s29 67 66 67s66 -31 66 -67zM552 207h-516v92h516v-92zM360 66c0 -37 -29 -67 -66 -67s-66 30 -66 67s30 66 66 66c37 0 66 -29 66 -66z" />
    <glyph glyph-name="lozenge" unicode="&#x25ca;" horiz-adv-x="588" 
d="M517 400l-179 -400h-89l-177 400l178 400h88zM421 400l-127 303l-127 -303l127 -303z" />
    <glyph glyph-name="ydieresis" unicode="&#xff;" horiz-adv-x="441" 
d="M345 594h-85v110h85v-110zM189 594h-85v110h85v-110zM434 502l-167 -565c-30 -103 -69 -163 -158 -163c-22 0 -49 5 -70 13l6 87c10 -6 29 -11 48 -11c32 0 49 37 62 70l19 66l-168 503h127l99 -368l86 368h116z" />
    <glyph glyph-name="Ydieresis" unicode="&#x178;" 
d="M368 737h-85v110h85v-110zM212 737h-85v110h85v-110zM488 667l-184 -400v-267h-122v267l-184 400h140l110 -287l106 287h134z" />
    <glyph glyph-name="fraction" unicode="&#x2044;" horiz-adv-x="97" 
d="M229 691l-289 -715h-71l288 715h72z" />
    <glyph glyph-name="currency" unicode="&#xa4;" 
d="M463 147l-52 -58l-59 66c-32 -25 -68 -39 -108 -39s-76 14 -109 38l-58 -65l-52 59l58 64c-22 38 -34 74 -34 121c0 45 11 84 34 121l-59 65l52 59l59 -66c33 25 67 38 108 38c42 0 75 -12 110 -37l58 64l52 -59l-58 -64c21 -38 34 -76 34 -122c0 -44 -11 -84 -34 -120z
M353 333c0 72 -50 130 -110 130s-108 -58 -108 -130s48 -131 108 -131s110 59 110 131z" />
    <glyph glyph-name="guilsinglleft" unicode="&#x2039;" horiz-adv-x="267" 
d="M238 55h-96l-110 202l110 203h96l-103 -203z" />
    <glyph glyph-name="guilsinglright" unicode="&#x203a;" horiz-adv-x="267" 
d="M235 258l-110 -203h-96l103 203l-103 202h96z" />
    <glyph glyph-name="fi" unicode="&#xfb01;" horiz-adv-x="535" 
d="M473 594h-116v110h116v-110zM473 0h-116v502h116v-502zM313 721l-6 -85c-11 5 -25 8 -38 8c-41 0 -59 -26 -59 -74v-68h89v-87h-89v-415h-115v415h-80v87h80v77c0 110 55 152 139 152c40 0 64 -7 79 -10z" />
    <glyph glyph-name="fl" unicode="&#xfb02;" horiz-adv-x="535" 
d="M473 0h-116v721h116v-721zM313 721l-6 -85c-11 5 -25 8 -38 8c-41 0 -59 -26 -59 -74v-68h89v-87h-89v-415h-115v415h-80v87h80v77c0 110 55 152 139 152c40 0 64 -7 79 -10z" />
    <glyph glyph-name="daggerdbl" unicode="&#x2021;" 
d="M434 84h-134v-212h-113v212h-134v96h134v233h-134v96h134v212h113v-212h134v-96h-134v-233h134v-96z" />
    <glyph glyph-name="periodcentered" unicode="&#xb7;" horiz-adv-x="243" 
d="M179 244h-115v132h115v-132z" />
    <glyph glyph-name="quotesinglbase" unicode="&#x201a;" horiz-adv-x="243" 
d="M186 132l-76 -260h-90l57 260h109z" />
    <glyph glyph-name="quotedblbase" unicode="&#x201e;" horiz-adv-x="410" 
d="M353 132l-76 -260h-90l57 260h109zM186 132l-76 -260h-90l57 260h109z" />
    <glyph glyph-name="perthousand" unicode="&#x2030;" horiz-adv-x="1116" 
d="M1060 195c0 -86 -19 -206 -135 -206c-118 0 -135 120 -135 206c0 80 19 206 135 206c120 0 135 -123 135 -206zM744 195c0 -86 -19 -206 -135 -206c-118 0 -135 120 -135 206c0 80 19 206 135 206c120 0 135 -123 135 -206zM580 691l-288 -715h-72l288 715h72zM326 471
c0 -86 -19 -206 -135 -206c-118 0 -135 120 -135 206c0 80 19 206 135 206c120 0 135 -123 135 -206zM977 195c0 73 -5 144 -52 144s-51 -69 -51 -144c0 -77 6 -145 51 -145c47 0 52 71 52 145zM661 195c0 73 -5 144 -52 144s-51 -69 -51 -144c0 -77 6 -145 51 -145
c47 0 52 71 52 145zM242 471c0 73 -4 144 -51 144s-52 -69 -52 -144c0 -77 7 -145 52 -145c47 0 51 71 51 145z" />
    <glyph glyph-name="Acircumflex" unicode="&#xc2;" horiz-adv-x="579" 
d="M424 724h-81l-53 86l-52 -86h-82l92 136h84zM569 0h-127l-45 163h-219l-45 -163h-123l211 667h138zM374 252l-88 311l-87 -311h175z" />
    <glyph glyph-name="Ecircumflex" unicode="&#xca;" horiz-adv-x="475" 
d="M382 724h-80l-53 86l-53 -86h-81l93 136h82zM432 0h-356v667h346v-96h-225v-179h211v-95h-211v-201h235v-96z" />
    <glyph glyph-name="Aacute" unicode="&#xc1;" horiz-adv-x="579" 
d="M408 860l-92 -136h-73l73 136h92zM569 0h-127l-45 163h-219l-45 -163h-123l211 667h138zM374 252l-88 311l-87 -311h175z" />
    <glyph glyph-name="Edieresis" unicode="&#xcb;" horiz-adv-x="475" 
d="M369 737h-85v110h85v-110zM213 737h-85v110h85v-110zM432 0h-356v667h346v-96h-225v-179h211v-95h-211v-201h235v-96z" />
    <glyph glyph-name="Egrave" unicode="&#xc8;" horiz-adv-x="476" 
d="M299 724h-73l-92 136h92zM432 0h-356v667h346v-96h-225v-179h211v-95h-211v-201h235v-96z" />
    <glyph glyph-name="Iacute" unicode="&#xcd;" horiz-adv-x="274" 
d="M257 860l-92 -136h-73l74 136h91zM199 0h-123v667h123v-667z" />
    <glyph glyph-name="Icircumflex" unicode="&#xce;" horiz-adv-x="274" 
d="M272 724h-81l-53 86l-53 -86h-82l93 136h84zM199 0h-122v667h122v-667z" />
    <glyph glyph-name="Idieresis" unicode="&#xcf;" horiz-adv-x="274" 
d="M258 737h-85v110h85v-110zM102 737h-85v110h85v-110zM199 0h-123v667h123v-667z" />
    <glyph glyph-name="Igrave" unicode="&#xcc;" horiz-adv-x="274" 
d="M182 724h-73l-92 136h92zM199 0h-123v667h123v-667z" />
    <glyph glyph-name="Oacute" unicode="&#xd3;" horiz-adv-x="613" 
d="M425 860l-91 -136h-74l74 136h91zM566 333c0 -167 -69 -344 -260 -344c-199 0 -258 177 -258 344c0 164 69 344 258 344c202 0 260 -178 260 -344zM439 333c0 105 -12 252 -133 252c-115 0 -132 -149 -132 -252c0 -118 22 -252 132 -252c119 0 133 150 133 252z" />
    <glyph glyph-name="Ocircumflex" unicode="&#xd4;" horiz-adv-x="613" 
d="M440 724h-81l-53 86l-52 -86h-81l92 136h83zM566 333c0 -167 -69 -344 -260 -344c-199 0 -258 177 -258 344c0 164 69 344 258 344c202 0 260 -178 260 -344zM439 333c0 105 -12 252 -133 252c-115 0 -132 -149 -132 -252c0 -118 22 -252 132 -252c119 0 133 150 133 252
z" />
    <glyph glyph-name="Ograve" unicode="&#xd2;" horiz-adv-x="613" 
d="M354 724h-73l-92 136h92zM566 333c0 -167 -69 -344 -260 -344c-199 0 -258 177 -258 344c0 164 69 344 258 344c202 0 260 -178 260 -344zM439 333c0 105 -12 252 -133 252c-115 0 -132 -149 -132 -252c0 -118 22 -252 132 -252c119 0 133 150 133 252z" />
    <glyph glyph-name="Uacute" unicode="&#xda;" horiz-adv-x="581" 
d="M406 860l-91 -136h-74l73 136h92zM513 242c0 -145 -67 -253 -223 -253c-162 0 -221 102 -221 253v425h123v-442c0 -71 12 -142 98 -142c84 0 100 71 100 142v442h123v-425z" />
    <glyph glyph-name="Ucircumflex" unicode="&#xdb;" horiz-adv-x="581" 
d="M425 724h-81l-53 86l-53 -86h-81l92 136h83zM513 242c0 -145 -67 -253 -223 -253c-162 0 -221 102 -221 253v425h123v-442c0 -71 12 -142 98 -142c84 0 100 71 100 142v442h123v-425z" />
    <glyph glyph-name="Ugrave" unicode="&#xd9;" horiz-adv-x="581" 
d="M350 724h-73l-92 136h92zM513 242c0 -145 -67 -253 -223 -253c-162 0 -221 102 -221 253v425h123v-442c0 -71 12 -142 98 -142c84 0 100 71 100 142v442h123v-425z" />
    <glyph glyph-name="dotlessi" unicode="&#x131;" horiz-adv-x="240" 
d="M178 0h-116v502h116v-502z" />
    <glyph glyph-name="circumflex" unicode="&#x2c6;" horiz-adv-x="240" 
d="M253 582h-81l-52 87l-52 -87h-81l91 136h83z" />
    <glyph glyph-name="tilde" unicode="&#x2dc;" horiz-adv-x="240" 
d="M262 711c0 -49 -26 -120 -84 -120c-45 0 -79 42 -109 42c-19 0 -31 -26 -31 -43h-59c2 50 27 119 86 119c45 0 82 -42 109 -42c20 0 28 29 28 44h60z" />
    <glyph glyph-name="macron" unicode="&#xaf;" horiz-adv-x="240" 
d="M251 616h-262v69h262v-69z" />
    <glyph glyph-name="breve" unicode="&#x2d8;" horiz-adv-x="240" 
d="M246 715c0 -54 -32 -132 -126 -132s-126 78 -126 132h55c3 -41 32 -67 71 -67s68 26 71 67h55z" />
    <glyph glyph-name="dotaccent" unicode="&#x2d9;" horiz-adv-x="240" 
d="M179 594h-117v110h117v-110z" />
    <glyph glyph-name="ring" unicode="&#x2da;" horiz-adv-x="240" 
d="M219 650c0 -55 -43 -97 -98 -97s-100 42 -100 97s46 98 100 98s98 -43 98 -98zM173 650c0 30 -22 54 -52 54c-29 0 -54 -25 -54 -54c0 -30 24 -53 54 -53s52 23 52 53z" />
    <glyph glyph-name="cedilla" unicode="&#xb8;" horiz-adv-x="240" 
d="M222 -119c0 -52 -52 -81 -108 -81c-39 0 -81 10 -96 19l15 38c13 -5 36 -15 68 -15c29 0 49 12 49 39c0 20 -18 32 -39 32c-19 0 -28 -3 -37 -7l-16 22l53 72h46l-41 -54c8 3 18 5 33 5c41 0 73 -28 73 -70z" />
    <glyph glyph-name="hungarumlaut" unicode="&#x2dd;" horiz-adv-x="240" 
d="M280 718l-92 -136h-73l73 136h92zM126 718l-92 -136h-74l73 136h93z" />
    <glyph glyph-name="ogonek" unicode="&#x2db;" horiz-adv-x="240" 
d="M206 -186c-24 -10 -48 -14 -81 -14c-60 0 -92 36 -92 82c0 59 44 93 104 118h41c-47 -33 -76 -59 -76 -103c0 -32 21 -55 52 -55c16 0 30 8 40 11z" />
    <glyph glyph-name="caron" unicode="&#x2c7;" horiz-adv-x="240" 
d="M253 718l-91 -136h-83l-92 136h81l53 -86l51 86h81z" />
    <glyph glyph-name="Euro" unicode="&#x20ac;" 
d="M453 648l-17 -90c-20 18 -56 27 -82 27c-83 0 -117 -87 -130 -157h191l-11 -58h-186c-1 -13 -1 -25 -1 -37s0 -24 1 -37h173l-11 -58h-156c12 -71 47 -157 131 -157c28 0 56 7 79 23l6 -97c-32 -12 -67 -18 -102 -18c-147 0 -212 124 -232 249h-73l11 58h56
c-1 13 -2 24 -2 37s1 24 2 37h-67l11 58h63c21 123 87 249 231 249c42 0 79 -9 115 -29z" />
    <glyph glyph-name="Eth" unicode="&#xd0;" horiz-adv-x="600" 
d="M553 333c0 -192 -105 -333 -305 -333h-172v295h-58v80h58v292h160c213 0 317 -129 317 -334zM426 333c0 130 -44 238 -188 238h-39v-196h113v-80h-113v-199h46c137 0 181 111 181 237z" />
  </font>
</defs>
</svg>
