<?xml version="1.0" standalone="no"?>
<!DOCTYPE svg PUBLIC "-//W3C//DTD SVG 1.1//EN" "http://www.w3.org/Graphics/SVG/1.1/DTD/svg11.dtd" >
<svg>
<metadata>
Created by FontForge 20120731 at Fri Jul 26 13:32:31 2013
 By Stefan Warting
FN-LT-RCnd.
</metadata>
<defs>
<font id="FN-LT-RCnd" horiz-adv-x="465" >
  <font-face 
    font-family="FN-LT"
    font-weight="400"
    font-stretch="normal"
    units-per-em="1000"
    panose-1="2 0 5 3 0 0 0 0 0 0"
    ascent="800"
    descent="-200"
    x-height="498"
    cap-height="667"
    bbox="-144 -227 1006 883"
    underline-thickness="50"
    underline-position="-100"
    stemh=" 20 "
    stemv=" 59 "
    unicode-range="U+0020-FB02"
  />
    <missing-glyph />
    <glyph glyph-name="eth" unicode="&#xf0;" horiz-adv-x="456" 
d="M414 284c0 -123 -27 -295 -186 -295c-139 0 -186 137 -186 255c0 119 46 251 182 251c43 0 80 -27 108 -58c-23 70 -48 138 -104 186l-91 -58l-31 28l89 55c-29 18 -68 40 -105 53l46 30c41 -15 79 -32 110 -54l89 54l30 -26l-85 -55c97 -79 134 -244 134 -366zM345 244
c0 77 -16 194 -117 194c-100 0 -116 -117 -116 -194c0 -76 20 -198 116 -198c97 0 117 122 117 198z" />
    <glyph glyph-name="Lslash" unicode="&#x141;" horiz-adv-x="385" 
d="M367 0h-283v289l-58 -66v69l58 67v308h71v-240l106 123v-72l-106 -122v-294h212v-62z" />
    <glyph glyph-name="lslash" unicode="&#x142;" horiz-adv-x="207" 
d="M190 451l-54 -63v-388h-65v321l-54 -63v70l54 63v330h65v-263l54 63v-70z" />
    <glyph glyph-name="Scaron" unicode="&#x160;" horiz-adv-x="418" 
d="M339 860l-92 -136h-59l-92 136h58l63 -96l64 96h58zM373 176c0 -113 -80 -187 -185 -187c-42 0 -102 10 -138 32l6 76c45 -38 101 -45 125 -45c104 0 118 84 118 115c0 72 -37 94 -93 135l-59 43c-67 49 -98 91 -98 165c0 146 139 167 182 167c54 0 98 -16 117 -21
l-6 -74c-28 17 -61 32 -111 32c-42 0 -108 -24 -108 -97c0 -57 29 -85 75 -118l59 -42c88 -63 116 -98 116 -181z" />
    <glyph glyph-name="scaron" unicode="&#x161;" horiz-adv-x="346" 
d="M299 720l-91 -136h-59l-92 136h60l62 -96l60 96h60zM313 132c0 -88 -61 -143 -148 -143c-46 0 -86 7 -129 23l6 68c36 -20 75 -34 116 -34c42 0 87 33 87 79c0 114 -205 93 -205 247c0 88 76 136 151 136c31 0 65 -7 96 -17l-6 -62c-29 12 -57 22 -88 22
c-42 0 -84 -29 -84 -74c0 -117 204 -92 204 -245z" />
    <glyph glyph-name="Yacute" unicode="&#xdd;" horiz-adv-x="414" 
d="M312 860l-92 -136h-52l73 136h71zM413 667l-170 -381v-286h-71v286l-171 381h78l131 -318l130 318h73z" />
    <glyph glyph-name="yacute" unicode="&#xfd;" horiz-adv-x="371" 
d="M297 720l-92 -136h-53l73 136h72zM361 498l-160 -591c-20 -73 -42 -133 -122 -133c-16 0 -29 2 -43 7l6 62c10 -7 27 -11 40 -11c25 0 44 30 52 60l27 99l-147 507h71l109 -408l101 408h66z" />
    <glyph glyph-name="Thorn" unicode="&#xde;" horiz-adv-x="456" 
d="M428 339c0 -118 -74 -190 -192 -190h-82v-149h-70v667h70v-136h66c125 0 208 -60 208 -192zM354 339c0 97 -56 131 -150 131h-50v-260h63c90 0 137 36 137 129z" />
    <glyph glyph-name="thorn" unicode="&#xfe;" horiz-adv-x="464" 
d="M423 251c0 -105 -36 -262 -167 -262c-59 0 -96 32 -120 77v-282h-65v937h65v-292c25 43 61 79 121 79c135 0 166 -150 166 -257zM353 251c0 70 -11 200 -107 200c-94 0 -113 -116 -113 -200s13 -205 112 -205c93 0 108 136 108 205z" />
    <glyph glyph-name="Zcaron" unicode="&#x17d;" horiz-adv-x="419" 
d="M333 860l-91 -136h-62l-92 136h60l63 -96l62 96h60zM389 0h-359v66l279 539h-268v62h343v-64l-280 -541h285v-62z" />
    <glyph glyph-name="zcaron" unicode="&#x17e;" horiz-adv-x="350" 
d="M300 720l-91 -136h-59l-92 136h60l62 -96l60 96h60zM323 0h-295v60l224 383h-217v55h285v-60l-223 -383h226v-55z" />
    <glyph glyph-name="onehalf" unicode="&#xbd;" horiz-adv-x="770" 
d="M650 0h-227v47l34 35c53 55 129 144 129 215c0 39 -21 60 -65 60c-30 0 -55 -7 -81 -22l-4 48c20 9 50 24 99 24c77 0 110 -51 110 -106c0 -78 -76 -164 -108 -199l-50 -55h163v-47zM504 691l-278 -715h-54l279 715h53zM211 266h-56v340l-56 -55l-29 38l90 78h51v-401z
" />
    <glyph glyph-name="onequarter" unicode="&#xbc;" horiz-adv-x="770" 
d="M648 89h-44v-89h-56v89h-165v55l152 257h69v-265h44v-47zM524 691l-278 -715h-54l279 715h53zM231 266h-56v340l-56 -55l-29 38l90 78h51v-401zM549 136v210l-123 -210h123z" />
    <glyph glyph-name="onesuperior" unicode="&#xb9;" horiz-adv-x="370" 
d="M211 266h-56v340l-56 -55l-29 38l90 78h51v-401z" />
    <glyph glyph-name="threequarters" unicode="&#xbe;" horiz-adv-x="770" 
d="M690 89h-44v-89h-56v89h-165v55l152 257h69v-265h44v-47zM566 691l-278 -715h-53l278 715h53zM317 385c0 -74 -55 -120 -148 -120c-23 0 -62 4 -83 16l4 52c25 -11 52 -18 80 -18c53 0 88 28 88 75s-44 67 -96 67h-26v47h25c53 0 95 17 95 66c0 39 -38 57 -80 57
c-28 0 -52 -8 -74 -19l-4 50c24 10 62 19 92 19c67 0 125 -37 125 -103c0 -48 -32 -80 -83 -93c49 -7 85 -43 85 -96zM591 136v210l-123 -210h123z" />
    <glyph glyph-name="threesuperior" unicode="&#xb3;" horiz-adv-x="360" 
d="M291 385c0 -74 -55 -120 -148 -120c-23 0 -62 4 -83 16l4 52c25 -11 52 -18 80 -18c53 0 88 28 88 75s-44 67 -96 67h-26v47h25c53 0 95 17 95 66c0 39 -38 57 -80 57c-28 0 -52 -8 -74 -19l-4 50c24 10 62 19 92 19c67 0 125 -37 125 -103c0 -48 -32 -80 -83 -93
c49 -7 85 -43 85 -96z" />
    <glyph glyph-name="twosuperior" unicode="&#xb2;" horiz-adv-x="360" 
d="M286 270h-226v47l33 35c52 56 129 144 129 215c0 39 -21 60 -65 60c-30 0 -55 -7 -81 -22l-4 48c20 9 50 24 99 24c77 0 110 -51 110 -106c0 -78 -76 -164 -108 -199l-50 -55h163v-47z" />
    <glyph glyph-name="brokenbar" unicode="&#xa6;" horiz-adv-x="206" 
d="M134 379h-61v396h61v-396zM134 -216h-61v397h61v-397z" />
    <glyph glyph-name="minus" unicode="&#x2212;" horiz-adv-x="542" 
d="M522 215h-501v58h501v-58z" />
    <glyph glyph-name="multiply" unicode="&#xd7;" horiz-adv-x="542" 
d="M508 50l-43 -43l-193 194l-194 -193l-43 42l194 194l-194 193l42 44l194 -195l194 194l43 -43l-194 -193z" />
    <glyph glyph-name="space" unicode=" " horiz-adv-x="232" 
 />
    <glyph glyph-name="exclam" unicode="!" horiz-adv-x="261" 
d="M170 667l-8 -500h-62l-9 500h79zM170 0h-79v91h79v-91z" />
    <glyph glyph-name="quotedbl" unicode="&#x22;" horiz-adv-x="369" 
d="M288 459h-67v208h67v-208zM149 459h-67v208h67v-208z" />
    <glyph glyph-name="numbersign" unicode="#" 
d="M435 405h-89l-17 -143h84v-52h-91l-25 -210h-52l25 210h-109l-25 -210h-52l25 210h-79v52h86l17 143h-81v52h88l25 210h52l-25 -210h109l24 210h53l-25 -210h82v-52zM294 405h-109l-17 -143h109z" />
    <glyph glyph-name="dollar" unicode="$" 
d="M396 176c0 -97 -60 -166 -144 -183v-101h-47v97c-41 1 -98 11 -132 32l6 76c45 -38 101 -45 125 -45c104 0 118 83 118 114c0 73 -37 95 -93 136l-59 43c-67 49 -98 91 -98 165c0 112 80 152 140 163v101h46v-97c52 -1 95 -16 113 -21l-6 -74c-28 17 -61 32 -111 32
c-42 0 -108 -24 -108 -97c0 -57 29 -85 75 -118l59 -42c88 -63 116 -98 116 -181z" />
    <glyph glyph-name="percent" unicode="%" horiz-adv-x="770" 
d="M706 195c0 -77 -15 -206 -124 -206s-125 129 -125 206c0 74 17 206 125 206c110 0 124 -130 124 -206zM552 691l-278 -715h-53l278 715h53zM315 471c0 -77 -15 -206 -124 -206s-126 129 -126 206c0 74 18 206 126 206c110 0 124 -130 124 -206zM647 195
c0 58 -2 157 -65 157s-66 -98 -66 -157c0 -60 4 -157 66 -157c63 0 65 99 65 157zM256 471c0 58 -2 157 -65 157s-67 -98 -67 -157c0 -60 5 -157 67 -157c63 0 65 99 65 157z" />
    <glyph glyph-name="ampersand" unicode="&#x26;" horiz-adv-x="523" 
d="M505 316h-79v-298c-57 -18 -115 -29 -175 -29c-117 0 -196 66 -196 188c0 92 63 164 155 169c-91 7 -139 68 -139 156c0 108 80 175 182 175c49 0 80 -8 125 -25l-6 -69c-46 23 -69 31 -121 31c-66 0 -109 -50 -109 -113c0 -79 46 -125 125 -125h93v80h66v-80h79v-60z
M360 69v247h-93c-81 0 -141 -54 -141 -137c0 -77 50 -127 127 -127c38 0 71 5 107 17z" />
    <glyph glyph-name="quotesingle" unicode="'" horiz-adv-x="232" 
d="M150 459h-67v208h67v-208z" />
    <glyph glyph-name="parenleft" unicode="(" horiz-adv-x="247" 
d="M242 -128h-52c-81 128 -138 263 -138 425s57 296 138 424h52c-69 -128 -121 -267 -121 -424s52 -297 121 -425z" />
    <glyph glyph-name="parenright" unicode=")" horiz-adv-x="247" 
d="M195 296c0 -162 -56 -296 -137 -424h-52c69 128 120 267 120 424s-51 297 -120 425h52c81 -128 137 -263 137 -425z" />
    <glyph glyph-name="asterisk" unicode="*" horiz-adv-x="367" 
d="M338 534l-115 -37l73 -108l-54 -32l-59 111l-57 -111l-53 32l72 108l-115 37l21 60l111 -52l-10 125h65l-9 -125l109 52z" />
    <glyph glyph-name="plus" unicode="+" horiz-adv-x="542" 
d="M522 215h-219v-215h-63v215h-219v58h219v215h63v-215h219v-58z" />
    <glyph glyph-name="comma" unicode="," horiz-adv-x="232" 
d="M158 91l-69 -219h-56l51 219h74z" />
    <glyph glyph-name="hyphen" unicode="-" horiz-adv-x="283" 
d="M240 278h-197v64h197v-64z" />
    <glyph glyph-name="period" unicode="." horiz-adv-x="232" 
d="M156 0h-79v91h79v-91z" />
    <glyph glyph-name="slash" unicode="/" horiz-adv-x="242" 
d="M233 667l-166 -667h-58l166 667h58z" />
    <glyph glyph-name="zero" unicode="0" 
d="M419 333c0 -122 -24 -344 -185 -344c-166 0 -187 223 -187 344c0 120 27 344 187 344c165 0 185 -223 185 -344zM347 333c0 91 -2 282 -113 282s-115 -191 -115 -282c0 -93 5 -282 115 -282c111 0 113 191 113 282z" />
    <glyph glyph-name="one" unicode="1" 
d="M293 0h-70v587l-87 -95l-36 50l126 125h67v-667z" />
    <glyph glyph-name="two" unicode="2" 
d="M389 0h-335v59l47 61c76 99 207 255 207 381c0 69 -33 113 -103 113c-47 0 -83 -21 -121 -46l-6 69c30 17 71 40 140 40c119 0 163 -89 163 -174c0 -128 -116 -279 -168 -343l-80 -99h256v-61z" />
    <glyph glyph-name="three" unicode="3" 
d="M388 189c0 -129 -87 -200 -219 -200c-38 0 -89 6 -121 26l6 69c37 -19 79 -32 120 -32c85 0 141 52 141 140c0 85 -73 125 -152 125h-41v61h39c85 0 150 36 150 128c0 73 -61 108 -127 108c-40 0 -78 -14 -110 -35l-6 67c32 17 90 31 128 31c101 0 188 -61 188 -169
c0 -82 -48 -138 -123 -159c80 -12 127 -77 127 -160z" />
    <glyph glyph-name="four" unicode="4" 
d="M430 152h-69v-152h-69v152h-256v69l237 446h88v-455h69v-60zM293 212v381l-200 -381h200z" />
    <glyph glyph-name="five" unicode="5" 
d="M405 212c0 -135 -73 -223 -213 -223c-51 0 -78 7 -123 28l7 68c32 -20 80 -33 116 -33c93 0 140 66 140 154c0 90 -49 145 -141 145c-40 0 -71 -11 -106 -25l10 341h275v-61h-208l-7 -207c21 8 38 13 61 13c122 0 189 -82 189 -200z" />
    <glyph glyph-name="six" unicode="6" 
d="M425 211c0 -116 -65 -222 -188 -222c-160 0 -188 176 -188 301c0 153 41 387 234 387c39 0 77 -7 114 -19l-6 -68c-33 15 -64 24 -101 24c-142 0 -161 -170 -173 -285c26 54 73 91 134 91c119 0 174 -102 174 -209zM354 210c0 72 -31 148 -114 148
c-79 0 -111 -80 -111 -148c0 -69 25 -159 108 -159s117 89 117 159z" />
    <glyph glyph-name="seven" unicode="7" 
d="M392 603l-204 -603h-76l206 606h-258v61h332v-64z" />
    <glyph glyph-name="eight" unicode="8" 
d="M422 172c0 -110 -82 -183 -189 -183c-114 0 -189 74 -189 184c0 85 60 131 126 176c-68 40 -108 89 -108 170c0 96 79 158 171 158s171 -62 171 -158c0 -79 -51 -129 -112 -170c69 -44 130 -89 130 -177zM334 516c0 54 -42 99 -101 99c-61 0 -101 -46 -101 -99
c0 -74 52 -109 109 -141c46 33 93 80 93 141zM351 172c0 77 -66 116 -126 150c-52 -33 -110 -79 -110 -149c0 -68 46 -122 118 -122c69 0 118 53 118 121z" />
    <glyph glyph-name="nine" unicode="9" 
d="M419 377c0 -149 -28 -388 -224 -388c-39 0 -83 7 -120 19l6 70c37 -15 66 -26 106 -26c137 0 159 176 162 284c-25 -56 -73 -91 -134 -91c-120 0 -174 111 -174 216c0 116 68 216 188 216c159 0 190 -174 190 -300zM338 456c0 69 -27 159 -110 159
c-88 0 -116 -80 -116 -154c0 -72 32 -154 116 -154c79 0 110 82 110 149z" />
    <glyph glyph-name="colon" unicode=":" horiz-adv-x="232" 
d="M156 407h-79v92h79v-92zM156 0h-79v91h79v-91z" />
    <glyph glyph-name="semicolon" unicode=";" horiz-adv-x="232" 
d="M155 407h-79v92h79v-92zM158 91l-69 -219h-56l51 219h74z" />
    <glyph glyph-name="less" unicode="&#x3c;" horiz-adv-x="542" 
d="M520 12l-501 199v64l501 201v-64l-429 -169l429 -168v-63z" />
    <glyph glyph-name="equal" unicode="=" horiz-adv-x="542" 
d="M522 309h-501v57h501v-57zM522 120h-501v58h501v-58z" />
    <glyph glyph-name="greater" unicode="&#x3e;" horiz-adv-x="542" 
d="M523 211l-501 -199v63l429 168l-429 169v64l501 -201v-64z" />
    <glyph glyph-name="question" unicode="?" horiz-adv-x="352" 
d="M314 514c0 -140 -136 -169 -136 -330v-17h-65v16c0 174 127 207 127 324c0 63 -39 107 -105 107c-37 0 -69 -11 -96 -30l-6 70c31 12 67 23 105 23c104 0 176 -55 176 -163zM186 0h-80v91h80v-91z" />
    <glyph glyph-name="at" unicode="@" horiz-adv-x="647" 
d="M597 230c0 -117 -53 -230 -174 -230c-37 0 -68 20 -74 60c-16 -31 -53 -60 -90 -60c-64 0 -86 57 -86 112c0 109 76 250 199 250c25 0 54 -7 77 -16l-52 -247c-1 -5 -2 -11 -2 -16c0 -27 10 -39 37 -39c71 0 106 95 106 186c0 119 -69 226 -198 226
c-150 0 -231 -167 -231 -297c0 -147 65 -268 218 -268c68 0 112 19 164 43l6 -56c-59 -24 -92 -39 -179 -39c-170 0 -267 146 -267 320c0 170 111 349 297 349c147 0 249 -133 249 -278zM394 313c-9 2 -23 3 -32 3c-86 0 -141 -129 -141 -202c0 -31 9 -69 47 -69
c64 0 91 109 102 159z" />
    <glyph glyph-name="A" unicode="A" horiz-adv-x="533" 
d="M522 0h-74l-54 181h-257l-55 -181h-70l218 667h75zM376 240l-110 360l-112 -360h222z" />
    <glyph glyph-name="B" unicode="B" horiz-adv-x="491" 
d="M440 184c0 -131 -85 -184 -207 -184h-149v667h163c104 0 177 -63 177 -169c0 -74 -39 -129 -108 -150c81 -15 124 -82 124 -164zM351 495c0 73 -43 111 -114 111h-83v-232h82c74 0 115 48 115 121zM367 185c0 80 -43 131 -124 131h-89v-255h87c82 0 126 39 126 124z" />
    <glyph glyph-name="C" unicode="C" horiz-adv-x="483" 
d="M451 9c-37 -12 -76 -20 -120 -20c-195 0 -280 166 -280 344c0 182 95 344 284 344c43 0 83 -9 115 -24l-6 -72c-29 22 -71 32 -110 32c-151 0 -209 -147 -209 -281c0 -132 60 -279 208 -279c46 0 77 11 112 29z" />
    <glyph glyph-name="D" unicode="D" horiz-adv-x="554" 
d="M504 333c0 -199 -97 -333 -303 -333h-117v667h95c220 0 325 -120 325 -334zM430 333c0 154 -59 272 -229 272h-46v-543h59c163 0 216 126 216 271z" />
    <glyph glyph-name="E" unicode="E" horiz-adv-x="433" 
d="M388 0h-304v667h293v-62h-223v-229h211v-60h-211v-254h234v-62z" />
    <glyph glyph-name="F" unicode="F" horiz-adv-x="405" 
d="M369 605h-214v-230h203v-59h-203v-316h-71v667h285v-62z" />
    <glyph glyph-name="G" unicode="G" horiz-adv-x="554" 
d="M494 27c-48 -26 -105 -38 -157 -38c-202 0 -286 167 -286 344c0 175 98 344 288 344c49 0 101 -12 142 -33l-6 -72c-37 26 -94 42 -140 42c-150 0 -210 -148 -210 -281c0 -137 59 -281 217 -281c31 0 58 5 84 20v226h-113v60h181v-331z" />
    <glyph glyph-name="H" unicode="H" horiz-adv-x="552" 
d="M469 0h-71v316h-243v-316h-71v667h71v-289h243v289h71v-667z" />
    <glyph glyph-name="I" unicode="I" horiz-adv-x="238" 
d="M155 0h-71v667h71v-667z" />
    <glyph glyph-name="J" unicode="J" horiz-adv-x="272" 
d="M197 181c0 -103 -21 -192 -144 -192c-17 0 -34 5 -52 10l6 67c15 -6 28 -12 43 -12c75 0 76 71 76 129v484h71v-486z" />
    <glyph glyph-name="K" unicode="K" horiz-adv-x="492" 
d="M489 0h-89l-245 328v-328h-71v667h71v-301l228 301h84l-251 -316z" />
    <glyph glyph-name="L" unicode="L" horiz-adv-x="385" 
d="M367 0h-283v667h71v-605h212v-62z" />
    <glyph glyph-name="M" unicode="M" horiz-adv-x="730" 
d="M646 0h-70v603l-184 -603h-58l-185 603v-603h-65v667h110l172 -575l171 575h109v-667z" />
    <glyph glyph-name="N" unicode="N" horiz-adv-x="588" 
d="M505 0h-98l-258 581v-581h-65v667h98l257 -583v583h66v-667z" />
    <glyph glyph-name="O" unicode="O" horiz-adv-x="574" 
d="M523 333c0 -153 -51 -344 -236 -344c-193 0 -236 189 -236 344c0 152 53 344 236 344c195 0 236 -189 236 -344zM449 333c0 114 -16 282 -162 282c-141 0 -162 -172 -162 -282c0 -116 21 -282 162 -282c143 0 162 171 162 282z" />
    <glyph glyph-name="P" unicode="P" horiz-adv-x="456" 
d="M428 476c0 -118 -74 -191 -192 -191h-82v-285h-70v667h136c125 0 208 -59 208 -191zM354 476c0 97 -56 130 -150 130h-50v-260h63c90 0 137 37 137 130z" />
    <glyph glyph-name="Q" unicode="Q" horiz-adv-x="574" 
d="M523 333c0 -121 -31 -267 -138 -321l124 -140h-86l-103 120c-10 -2 -21 -3 -33 -3c-193 0 -236 189 -236 344c0 152 53 344 236 344c195 0 236 -189 236 -344zM449 333c0 114 -16 282 -162 282c-141 0 -162 -172 -162 -282c0 -116 21 -282 162 -282
c143 0 162 171 162 282z" />
    <glyph glyph-name="R" unicode="R" horiz-adv-x="490" 
d="M465 0h-75l-79 225c-16 45 -33 81 -84 81h-73v-306h-70v667h165c105 0 179 -65 179 -172c0 -86 -46 -146 -131 -161c39 -7 55 -28 69 -66zM354 490c0 79 -49 116 -125 116h-75v-239h78c82 0 122 43 122 123z" />
    <glyph glyph-name="S" unicode="S" horiz-adv-x="418" 
d="M373 176c0 -113 -80 -187 -185 -187c-42 0 -102 10 -138 32l6 76c45 -38 101 -45 125 -45c104 0 118 84 118 115c0 72 -37 94 -93 135l-59 43c-67 49 -98 91 -98 165c0 146 139 167 182 167c54 0 98 -16 117 -21l-6 -74c-28 17 -61 32 -111 32c-42 0 -108 -24 -108 -97
c0 -57 29 -85 75 -118l59 -42c88 -63 116 -98 116 -181z" />
    <glyph glyph-name="T" unicode="T" horiz-adv-x="394" 
d="M382 605h-149v-605h-71v605h-150v62h370v-62z" />
    <glyph glyph-name="U" unicode="U" horiz-adv-x="551" 
d="M476 242c0 -133 -49 -253 -201 -253c-159 0 -199 115 -199 253v425h71v-428c0 -92 13 -189 128 -189c113 0 130 97 130 189v428h71v-425z" />
    <glyph glyph-name="V" unicode="V" horiz-adv-x="480" 
d="M471 667l-191 -667h-77l-193 667h75l159 -587l157 587h70z" />
    <glyph glyph-name="W" unicode="W" horiz-adv-x="747" 
d="M733 667l-150 -667h-82l-127 592l-126 -592h-83l-151 667h74l120 -588l127 588h83l127 -588l119 588h69z" />
    <glyph glyph-name="X" unicode="X" horiz-adv-x="489" 
d="M478 0h-79l-156 303l-154 -303h-78l193 354l-173 313h80l137 -261l137 261h75l-174 -313z" />
    <glyph glyph-name="Y" unicode="Y" horiz-adv-x="414" 
d="M413 667l-170 -381v-286h-71v286l-171 381h78l131 -318l130 318h73z" />
    <glyph glyph-name="Z" unicode="Z" horiz-adv-x="419" 
d="M389 0h-359v66l279 539h-268v62h343v-64l-280 -541h285v-62z" />
    <glyph glyph-name="bracketleft" unicode="[" horiz-adv-x="247" 
d="M212 -128h-136v849h136v-56h-76v-737h76v-56z" />
    <glyph glyph-name="backslash" unicode="\" horiz-adv-x="242" 
d="M233 0h-58l-166 667h59z" />
    <glyph glyph-name="bracketright" unicode="]" horiz-adv-x="247" 
d="M171 -128h-135v56h76v737h-76v56h135v-849z" />
    <glyph glyph-name="asciicircum" unicode="^" horiz-adv-x="542" 
d="M470 250h-66l-134 343l-131 -343h-67l169 417h61z" />
    <glyph glyph-name="underscore" unicode="_" horiz-adv-x="500" 
d="M500 -125h-500v50h500v-50z" />
    <glyph glyph-name="grave" unicode="`" horiz-adv-x="207" 
d="M145 584h-53l-92 136h70z" />
    <glyph glyph-name="a" unicode="a" horiz-adv-x="439" 
d="M374 0h-62l-4 71c-35 -52 -72 -82 -136 -82c-79 0 -137 63 -137 140c0 135 130 170 238 170h32v35c0 71 -25 118 -104 118c-42 0 -93 -22 -126 -50l-6 65c46 25 83 41 139 41c113 0 161 -63 161 -164v-236c0 -38 2 -73 5 -108zM305 188v61h-16c-86 0 -187 -13 -187 -118
c0 -51 36 -86 88 -86c78 0 115 73 115 143z" />
    <glyph glyph-name="b" unicode="b" horiz-adv-x="464" 
d="M423 251c0 -105 -36 -262 -167 -262c-59 0 -98 33 -122 79l-2 -68h-61v721h65v-292c25 43 61 79 121 79c135 0 166 -150 166 -257zM353 251c0 70 -12 200 -108 200c-94 0 -112 -120 -112 -200c0 -81 13 -205 112 -205c93 0 108 136 108 205z" />
    <glyph glyph-name="c" unicode="c" horiz-adv-x="374" 
d="M343 8c-30 -12 -63 -19 -95 -19c-148 0 -206 133 -206 262c0 145 80 257 205 257c32 0 64 -7 93 -19l-6 -64c-24 17 -55 25 -83 25c-105 0 -139 -111 -139 -199c0 -94 34 -203 146 -203c26 0 59 12 79 27z" />
    <glyph glyph-name="d" unicode="d" horiz-adv-x="464" 
d="M397 0h-60l-3 72c-23 -44 -64 -83 -125 -83c-132 0 -167 157 -167 262c0 107 34 257 168 257c60 0 94 -36 119 -79v292h65v-574c0 -55 0 -92 3 -147zM331 251c0 80 -18 200 -112 200c-96 0 -107 -130 -107 -200c0 -69 15 -205 108 -205c99 0 111 124 111 205z" />
    <glyph glyph-name="e" unicode="e" horiz-adv-x="417" 
d="M378 232h-268c0 -87 28 -187 134 -187c38 0 82 17 112 39l6 -67c-35 -18 -86 -28 -125 -28c-151 0 -195 129 -195 262c0 119 47 257 174 257c131 0 162 -140 162 -247v-29zM311 283c0 63 -17 170 -95 170c-76 0 -106 -102 -106 -170h201z" />
    <glyph glyph-name="f" unicode="f" horiz-adv-x="260" 
d="M264 723l-6 -57c-12 5 -24 8 -37 8c-44 0 -62 -30 -62 -77v-99h87v-55h-87v-443h-64v443h-76v55h76v94c0 98 38 139 121 139c19 0 34 -5 48 -8z" />
    <glyph glyph-name="g" unicode="g" horiz-adv-x="464" 
d="M394 15c0 -128 -45 -241 -187 -241c-50 0 -95 12 -142 27l6 68c40 -23 86 -38 133 -38c123 0 125 124 125 215v28c-25 -44 -64 -74 -120 -74c-132 0 -167 138 -167 251c0 107 35 257 167 257c62 0 99 -34 123 -79v69h62v-483zM331 251c0 80 -17 200 -111 200
c-96 0 -108 -130 -108 -200c0 -73 11 -194 106 -194c103 0 113 116 113 194z" />
    <glyph glyph-name="h" unicode="h" horiz-adv-x="462" 
d="M391 0h-65v343c0 58 -23 107 -85 107c-68 0 -105 -78 -105 -136v-314h-65v721h65v-295c21 45 67 82 120 82c99 0 135 -76 135 -164v-344z" />
    <glyph glyph-name="i" unicode="i" horiz-adv-x="207" 
d="M137 607h-66v86h66v-86zM136 0h-65v498h65v-498z" />
    <glyph glyph-name="j" unicode="j" horiz-adv-x="211" 
d="M141 608h-67v86h67v-86zM140 -94c0 -63 -15 -132 -102 -132c-21 0 -34 3 -43 7l6 57c10 -3 15 -6 21 -6c27 0 53 4 53 67v599h65v-592z" />
    <glyph glyph-name="k" unicode="k" horiz-adv-x="405" 
d="M398 0h-78l-184 261v-261h-65v721h65v-428l168 205h77l-187 -220z" />
    <glyph glyph-name="l" unicode="l" horiz-adv-x="207" 
d="M136 0h-65v721h65v-721z" />
    <glyph glyph-name="m" unicode="m" horiz-adv-x="677" 
d="M606 0h-64v342c0 53 -11 108 -77 108c-60 0 -94 -75 -94 -132v-318h-64v342c0 53 -11 108 -77 108c-59 0 -94 -75 -94 -132v-318h-65v350c0 48 -2 100 -3 148h60l2 -72c21 46 63 82 116 82c59 0 94 -29 115 -82c31 48 69 82 120 82c90 0 125 -61 125 -159v-349z" />
    <glyph glyph-name="n" unicode="n" horiz-adv-x="462" 
d="M391 0h-64v342c0 58 -24 108 -86 108c-71 0 -105 -75 -105 -133v-317h-65v350c0 50 -2 98 -3 148h60l2 -72c22 44 66 82 126 82c100 0 135 -77 135 -165v-343z" />
    <glyph glyph-name="o" unicode="o" horiz-adv-x="456" 
d="M414 251c0 -118 -44 -262 -186 -262c-143 0 -186 143 -186 262c0 118 51 257 186 257c146 0 186 -136 186 -257zM345 251c0 78 -14 200 -117 200c-96 0 -116 -127 -116 -200c0 -76 16 -205 116 -205s117 129 117 205z" />
    <glyph glyph-name="p" unicode="p" horiz-adv-x="464" 
d="M423 251c0 -105 -36 -262 -167 -262c-59 0 -96 32 -120 77v-282h-65v566c0 55 0 93 -3 148h61l2 -73c24 43 64 83 124 83c135 0 168 -149 168 -257zM353 251c0 70 -11 200 -107 200c-94 0 -113 -116 -113 -200s13 -205 112 -205c93 0 108 136 108 205z" />
    <glyph glyph-name="q" unicode="q" horiz-adv-x="464" 
d="M394 -216h-65v282c-24 -45 -61 -77 -120 -77c-132 0 -167 157 -167 262c0 108 33 257 168 257c60 0 97 -34 122 -79v69h62v-714zM331 251c0 80 -18 200 -112 200c-96 0 -107 -130 -107 -200c0 -69 15 -205 108 -205c99 0 111 124 111 205z" />
    <glyph glyph-name="r" unicode="r" horiz-adv-x="281" 
d="M267 504l-6 -64c-6 0 -13 2 -19 2c-72 0 -106 -80 -106 -143v-299h-65v350c0 50 -2 98 -3 148h60l2 -76c21 47 63 86 116 86c7 0 15 -3 21 -4z" />
    <glyph glyph-name="s" unicode="s" horiz-adv-x="346" 
d="M313 132c0 -88 -61 -143 -148 -143c-46 0 -86 7 -129 23l6 68c36 -20 75 -34 116 -34c42 0 87 33 87 79c0 114 -205 93 -205 247c0 88 76 136 151 136c31 0 65 -7 96 -17l-6 -62c-29 12 -57 22 -88 22c-42 0 -84 -29 -84 -74c0 -117 204 -92 204 -245z" />
    <glyph glyph-name="t" unicode="t" horiz-adv-x="274" 
d="M254 1c-22 -8 -47 -12 -70 -12c-70 0 -95 47 -95 110v344h-72v55h72v113l64 22v-135h98v-55h-98v-324c0 -38 3 -72 51 -72c16 0 30 7 44 15z" />
    <glyph glyph-name="u" unicode="u" horiz-adv-x="458" 
d="M391 0h-60l-2 71c-22 -44 -65 -82 -125 -82c-100 0 -135 79 -135 167v342h65v-342c0 -58 22 -109 84 -109c71 0 105 76 105 134v317h64v-350c0 -50 3 -98 4 -148z" />
    <glyph glyph-name="v" unicode="v" horiz-adv-x="381" 
d="M371 498l-139 -498h-79l-142 498h71l112 -430l111 430h66z" />
    <glyph glyph-name="w" unicode="w" horiz-adv-x="629" 
d="M617 498l-127 -498h-78l-96 421l-98 -421h-78l-127 498h71l97 -432l98 432h77l98 -432l98 432h65z" />
    <glyph glyph-name="x" unicode="x" horiz-adv-x="388" 
d="M376 0h-77l-106 214l-108 -214h-73l142 262l-129 236h75l96 -190l94 190h73l-131 -238z" />
    <glyph glyph-name="y" unicode="y" horiz-adv-x="371" 
d="M361 498l-160 -591c-20 -73 -42 -133 -122 -133c-16 0 -29 2 -43 7l6 62c10 -7 27 -11 40 -11c25 0 44 30 52 60l27 99l-147 507h71l109 -408l101 408h66z" />
    <glyph glyph-name="z" unicode="z" horiz-adv-x="350" 
d="M323 0h-295v60l224 383h-217v55h285v-60l-223 -383h226v-55z" />
    <glyph glyph-name="braceleft" unicode="{" horiz-adv-x="253" 
d="M238 -128h-46c-67 0 -101 31 -101 112v172c0 97 -20 117 -61 117v48c41 0 61 23 61 120v168c0 81 35 112 101 112h46v-48h-30c-40 0 -59 -15 -59 -66v-196c0 -78 -31 -104 -67 -114c36 -10 67 -35 67 -114v-196c0 -51 19 -67 59 -67h30v-48z" />
    <glyph glyph-name="bar" unicode="|" horiz-adv-x="206" 
d="M134 -216h-61v991h61v-991z" />
    <glyph glyph-name="braceright" unicode="}" horiz-adv-x="253" 
d="M224 273c-41 0 -61 -20 -61 -117v-172c0 -81 -35 -112 -102 -112h-45v48h29c40 0 60 16 60 67v196c0 79 32 104 68 114c-36 10 -68 36 -68 114v196c0 51 -20 66 -60 66h-29v48h45c66 0 102 -31 102 -112v-168c0 -97 20 -120 61 -120v-48z" />
    <glyph glyph-name="asciitilde" unicode="~" horiz-adv-x="542" 
d="M534 316c-5 -69 -43 -137 -121 -137c-93 0 -200 73 -281 73c-46 0 -73 -38 -79 -80h-45c10 70 42 138 124 138c90 0 202 -74 280 -74c47 0 71 39 80 80h42z" />
    <glyph glyph-name="Adieresis" unicode="&#xc4;" horiz-adv-x="533" 
d="M367 750h-59v85h59v-85zM225 750h-59v85h59v-85zM522 0h-74l-54 181h-257l-55 -181h-70l218 667h75zM376 240l-110 360l-112 -360h222z" />
    <glyph glyph-name="Aring" unicode="&#xc5;" horiz-adv-x="533" 
d="M359 791c0 -52 -40 -91 -92 -91s-93 39 -93 91s42 92 93 92s92 -40 92 -92zM522 0h-74l-54 181h-257l-55 -181h-70l218 667h75zM323 791c0 31 -24 56 -56 56c-30 0 -57 -25 -57 -56c0 -32 25 -56 57 -56c31 0 56 24 56 56zM376 240l-110 360l-112 -360h222z" />
    <glyph glyph-name="Ccedilla" unicode="&#xc7;" horiz-adv-x="483" 
d="M451 9c-36 -12 -75 -20 -117 -20l-34 -43c8 3 17 5 34 5c33 0 62 -26 62 -61c0 -43 -40 -71 -98 -71c-29 0 -63 4 -85 16l11 30c20 -7 41 -14 66 -14c29 0 51 14 51 37c0 22 -17 34 -36 34c-18 0 -28 -3 -39 -8l-11 19l43 57c-172 17 -247 175 -247 343
c0 182 95 344 284 344c43 0 83 -9 115 -24l-6 -72c-29 22 -71 32 -110 32c-151 0 -209 -147 -209 -281c0 -132 60 -279 208 -279c46 0 77 11 112 29z" />
    <glyph glyph-name="Eacute" unicode="&#xc9;" horiz-adv-x="433" 
d="M337 860l-91 -136h-53l73 136h71zM388 0h-304v667h293v-62h-223v-229h211v-60h-211v-254h234v-62z" />
    <glyph glyph-name="Ntilde" unicode="&#xd1;" horiz-adv-x="588" 
d="M428 843c0 -42 -29 -99 -77 -99c-46 0 -69 41 -102 41c-22 0 -38 -26 -38 -46h-43c0 46 28 99 80 99c42 0 76 -42 103 -42c22 0 34 28 34 47h43zM505 0h-98l-258 581v-581h-65v667h98l257 -583v583h66v-667z" />
    <glyph glyph-name="Odieresis" unicode="&#xd6;" horiz-adv-x="574" 
d="M387 750h-59v85h59v-85zM245 750h-59v85h59v-85zM523 333c0 -153 -51 -344 -236 -344c-193 0 -236 189 -236 344c0 152 53 344 236 344c195 0 236 -189 236 -344zM449 333c0 114 -16 282 -162 282c-141 0 -162 -172 -162 -282c0 -116 21 -282 162 -282
c143 0 162 171 162 282z" />
    <glyph glyph-name="Udieresis" unicode="&#xdc;" horiz-adv-x="551" 
d="M376 750h-59v85h59v-85zM234 750h-59v85h59v-85zM476 242c0 -133 -49 -253 -201 -253c-159 0 -199 115 -199 253v425h71v-428c0 -92 13 -189 128 -189c113 0 130 97 130 189v428h71v-425z" />
    <glyph glyph-name="aacute" unicode="&#xe1;" horiz-adv-x="439" 
d="M315 720l-93 -136h-52l74 136h71zM374 0h-62l-4 71c-35 -52 -72 -82 -136 -82c-79 0 -137 63 -137 140c0 135 130 170 238 170h32v35c0 71 -25 118 -104 118c-42 0 -93 -22 -126 -50l-6 65c46 25 83 41 139 41c113 0 161 -63 161 -164v-236c0 -38 2 -73 5 -108zM305 188
v61h-16c-86 0 -187 -13 -187 -118c0 -51 36 -86 88 -86c78 0 115 73 115 143z" />
    <glyph glyph-name="agrave" unicode="&#xe0;" horiz-adv-x="439" 
d="M251 584h-52l-93 136h70zM374 0h-62l-4 71c-35 -52 -72 -82 -136 -82c-79 0 -137 63 -137 140c0 135 130 170 238 170h32v35c0 71 -25 118 -104 118c-42 0 -93 -22 -126 -50l-6 65c46 25 83 41 139 41c113 0 161 -63 161 -164v-236c0 -38 2 -73 5 -108zM305 188v61h-16
c-86 0 -187 -13 -187 -118c0 -51 36 -86 88 -86c78 0 115 73 115 143z" />
    <glyph glyph-name="acircumflex" unicode="&#xe2;" horiz-adv-x="439" 
d="M331 584h-60l-63 97l-60 -97h-60l91 136h60zM374 0h-62l-4 71c-35 -52 -72 -82 -136 -82c-79 0 -137 63 -137 140c0 135 130 170 238 170h32v35c0 71 -25 118 -104 118c-42 0 -93 -22 -126 -50l-6 65c46 25 83 41 139 41c113 0 161 -63 161 -164v-236c0 -38 2 -73 5 -108
zM305 188v61h-16c-86 0 -187 -13 -187 -118c0 -51 36 -86 88 -86c78 0 115 73 115 143z" />
    <glyph glyph-name="adieresis" unicode="&#xe4;" horiz-adv-x="439" 
d="M311 607h-59v86h59v-86zM169 607h-59v86h59v-86zM374 0h-62l-4 71c-35 -52 -72 -82 -136 -82c-79 0 -137 63 -137 140c0 135 130 170 238 170h32v35c0 71 -25 118 -104 118c-42 0 -93 -22 -126 -50l-6 65c46 25 83 41 139 41c113 0 161 -63 161 -164v-236
c0 -38 2 -73 5 -108zM305 188v61h-16c-86 0 -187 -13 -187 -118c0 -51 36 -86 88 -86c78 0 115 73 115 143z" />
    <glyph glyph-name="atilde" unicode="&#xe3;" horiz-adv-x="439" 
d="M342 704c0 -42 -28 -99 -76 -99c-46 0 -70 41 -103 41c-21 0 -38 -26 -38 -46h-42c0 47 27 99 79 99c42 0 77 -41 104 -41c22 0 33 28 33 46h43zM374 0h-62l-4 71c-35 -52 -72 -82 -136 -82c-79 0 -137 63 -137 140c0 135 130 170 238 170h32v35c0 71 -25 118 -104 118
c-42 0 -93 -22 -126 -50l-6 65c46 25 83 41 139 41c113 0 161 -63 161 -164v-236c0 -38 2 -73 5 -108zM305 188v61h-16c-86 0 -187 -13 -187 -118c0 -51 36 -86 88 -86c78 0 115 73 115 143z" />
    <glyph glyph-name="aring" unicode="&#xe5;" horiz-adv-x="439" 
d="M303 652c0 -52 -40 -91 -92 -91s-93 39 -93 91s42 92 93 92s92 -40 92 -92zM374 0h-62l-4 71c-35 -52 -72 -82 -136 -82c-79 0 -137 63 -137 140c0 135 130 170 238 170h32v35c0 71 -25 118 -104 118c-42 0 -93 -22 -126 -50l-6 65c46 25 83 41 139 41
c113 0 161 -63 161 -164v-236c0 -38 2 -73 5 -108zM266 652c0 31 -23 57 -55 57c-30 0 -57 -26 -57 -57c0 -32 25 -56 57 -56c31 0 55 24 55 56zM305 188v61h-16c-86 0 -187 -13 -187 -118c0 -51 36 -86 88 -86c78 0 115 73 115 143z" />
    <glyph glyph-name="ccedilla" unicode="&#xe7;" horiz-adv-x="374" 
d="M343 8c-30 -12 -61 -19 -93 -19l-33 -43c8 3 17 5 34 5c33 0 62 -26 62 -61c0 -43 -40 -71 -98 -71c-29 0 -64 4 -86 16l11 30c20 -7 41 -14 66 -14c29 0 51 14 51 37c0 22 -17 34 -36 34c-18 0 -28 -3 -39 -8l-11 19l43 58c-123 18 -172 141 -172 260
c0 145 80 257 205 257c32 0 64 -7 93 -19l-6 -64c-24 17 -55 25 -83 25c-105 0 -139 -111 -139 -199c0 -94 34 -203 146 -203c26 0 59 12 79 27z" />
    <glyph glyph-name="eacute" unicode="&#xe9;" horiz-adv-x="417" 
d="M326 720l-93 -136h-52l75 136h70zM378 232h-268c0 -87 28 -187 134 -187c38 0 82 17 112 39l6 -67c-35 -18 -86 -28 -125 -28c-151 0 -195 129 -195 262c0 119 47 257 174 257c131 0 162 -140 162 -247v-29zM311 283c0 63 -17 170 -95 170c-76 0 -106 -102 -106 -170h201
z" />
    <glyph glyph-name="egrave" unicode="&#xe8;" horiz-adv-x="417" 
d="M254 584h-52l-93 136h70zM378 232h-268c0 -87 28 -187 134 -187c38 0 82 17 112 39l6 -67c-35 -18 -86 -28 -125 -28c-151 0 -195 129 -195 262c0 119 47 257 174 257c131 0 162 -140 162 -247v-29zM311 283c0 63 -17 170 -95 170c-76 0 -106 -102 -106 -170h201z" />
    <glyph glyph-name="ecircumflex" unicode="&#xea;" horiz-adv-x="417" 
d="M333 584h-60l-62 97l-60 -97h-60l91 136h59zM378 232h-268c0 -87 28 -187 134 -187c38 0 82 17 112 39l6 -67c-35 -18 -86 -28 -125 -28c-151 0 -195 129 -195 262c0 119 47 257 174 257c131 0 162 -140 162 -247v-29zM311 283c0 63 -17 170 -95 170
c-76 0 -106 -102 -106 -170h201z" />
    <glyph glyph-name="edieresis" unicode="&#xeb;" horiz-adv-x="417" 
d="M314 607h-59v86h59v-86zM172 607h-59v86h59v-86zM378 232h-268c0 -87 28 -187 134 -187c38 0 82 17 112 39l6 -67c-35 -18 -86 -28 -125 -28c-151 0 -195 129 -195 262c0 119 47 257 174 257c131 0 162 -140 162 -247v-29zM311 283c0 63 -17 170 -95 170
c-76 0 -106 -102 -106 -170h201z" />
    <glyph glyph-name="iacute" unicode="&#xed;" horiz-adv-x="207" 
d="M208 720l-93 -136h-52l75 136h70zM136 0h-65v498h65v-498z" />
    <glyph glyph-name="igrave" unicode="&#xec;" horiz-adv-x="207" 
d="M145 584h-53l-92 136h70zM136 0h-65v498h65v-498z" />
    <glyph glyph-name="icircumflex" unicode="&#xee;" horiz-adv-x="207" 
d="M225 584h-60l-62 97l-61 -97h-60l91 136h60zM135 0h-64v498h64v-498z" />
    <glyph glyph-name="idieresis" unicode="&#xef;" horiz-adv-x="207" 
d="M204 607h-59v86h59v-86zM62 607h-59v86h59v-86zM136 0h-65v498h65v-498z" />
    <glyph glyph-name="ntilde" unicode="&#xf1;" horiz-adv-x="462" 
d="M361 704c0 -42 -28 -99 -76 -99c-46 0 -70 41 -103 41c-21 0 -38 -26 -38 -46h-42c0 47 27 99 79 99c42 0 77 -41 104 -41c22 0 34 28 34 46h42zM391 0h-64v341c0 54 -19 109 -86 109c-73 0 -105 -73 -105 -135v-315h-65v350c0 50 -2 98 -3 148h60l1 -71
c26 46 72 81 127 81c100 0 135 -76 135 -165v-343z" />
    <glyph glyph-name="oacute" unicode="&#xf3;" horiz-adv-x="456" 
d="M333 720l-93 -136h-52l75 136h70zM414 251c0 -118 -44 -262 -186 -262c-143 0 -186 143 -186 262c0 118 51 257 186 257c146 0 186 -136 186 -257zM345 251c0 78 -14 200 -117 200c-96 0 -116 -127 -116 -200c0 -76 16 -205 116 -205s117 129 117 205z" />
    <glyph glyph-name="ograve" unicode="&#xf2;" horiz-adv-x="456" 
d="M268 584h-52l-93 136h71zM414 251c0 -118 -44 -262 -186 -262c-143 0 -186 143 -186 262c0 118 51 257 186 257c146 0 186 -136 186 -257zM345 251c0 78 -14 200 -117 200c-96 0 -116 -127 -116 -200c0 -76 16 -205 116 -205s117 129 117 205z" />
    <glyph glyph-name="ocircumflex" unicode="&#xf4;" horiz-adv-x="456" 
d="M351 584h-60l-63 97l-60 -97h-60l91 136h60zM414 251c0 -118 -44 -262 -186 -262c-143 0 -186 143 -186 262c0 118 51 257 186 257c146 0 186 -136 186 -257zM345 251c0 78 -14 200 -117 200c-96 0 -116 -127 -116 -200c0 -76 16 -205 116 -205s117 129 117 205z" />
    <glyph glyph-name="odieresis" unicode="&#xf6;" horiz-adv-x="456" 
d="M329 607h-59v86h59v-86zM187 607h-59v86h59v-86zM414 251c0 -118 -44 -262 -186 -262c-143 0 -186 143 -186 262c0 118 51 257 186 257c146 0 186 -136 186 -257zM345 251c0 78 -14 200 -117 200c-96 0 -116 -127 -116 -200c0 -76 16 -205 116 -205s117 129 117 205z" />
    <glyph glyph-name="otilde" unicode="&#xf5;" horiz-adv-x="456" 
d="M360 704c0 -42 -29 -99 -77 -99c-46 0 -69 41 -102 41c-21 0 -38 -26 -38 -46h-42c0 47 27 99 79 99c42 0 76 -41 103 -41c22 0 34 28 34 46h43zM414 251c0 -118 -44 -262 -186 -262c-143 0 -186 143 -186 262c0 118 51 257 186 257c146 0 186 -136 186 -257zM345 251
c0 78 -14 200 -117 200c-96 0 -116 -127 -116 -200c0 -76 16 -205 116 -205s117 129 117 205z" />
    <glyph glyph-name="uacute" unicode="&#xfa;" horiz-adv-x="458" 
d="M331 720l-92 -136h-52l74 136h70zM391 0h-60l-2 70c-26 -46 -65 -81 -124 -81c-97 0 -136 73 -136 167v342h65v-341c0 -58 17 -110 85 -110s104 63 104 133v318h64v-350c0 -50 3 -98 4 -148z" />
    <glyph glyph-name="ugrave" unicode="&#xf9;" horiz-adv-x="458" 
d="M270 584h-52l-93 136h70zM391 0h-60l-2 70c-26 -46 -65 -81 -124 -81c-97 0 -136 73 -136 167v342h65v-341c0 -58 17 -110 85 -110s104 63 104 133v318h64v-350c0 -50 3 -98 4 -148z" />
    <glyph glyph-name="ucircumflex" unicode="&#xfb;" horiz-adv-x="458" 
d="M350 584h-60l-63 97l-60 -97h-60l91 136h60zM391 0h-60l-2 70c-26 -46 -65 -81 -124 -81c-97 0 -136 73 -136 167v342h65v-341c0 -58 17 -110 85 -110s104 63 104 133v318h64v-350c0 -50 3 -98 4 -148z" />
    <glyph glyph-name="udieresis" unicode="&#xfc;" horiz-adv-x="458" 
d="M329 607h-59v86h59v-86zM187 607h-60v86h60v-86zM391 0h-60l-2 70c-26 -46 -65 -81 -124 -81c-97 0 -136 73 -136 167v342h65v-341c0 -58 17 -110 85 -110s104 63 104 133v318h64v-350c0 -50 3 -98 4 -148z" />
    <glyph glyph-name="dagger" unicode="&#x2020;" 
d="M399 430h-132v-558h-68v558h-132v62h132v229h68v-229h132v-62z" />
    <glyph glyph-name="degree" unicode="&#xb0;" horiz-adv-x="400" 
d="M339 537c0 -76 -62 -139 -139 -139s-139 63 -139 139s62 140 139 140s139 -64 139 -140zM294 537c0 51 -42 93 -94 93c-51 0 -93 -42 -93 -93c0 -52 41 -92 93 -92s94 40 94 92z" />
    <glyph glyph-name="cent" unicode="&#xa2;" 
d="M368 110c-27 -11 -53 -18 -81 -19v-91h-43v93c-117 19 -161 133 -161 243c0 123 61 222 161 239v92h43v-90c26 -1 52 -8 77 -18l-6 -64c-24 17 -53 24 -79 24c-97 0 -128 -102 -128 -183c0 -87 31 -188 135 -188c24 0 55 12 76 27z" />
    <glyph glyph-name="sterling" unicode="&#xa3;" 
d="M420 652l-6 -66c-26 19 -63 29 -95 29c-67 0 -122 -53 -122 -146v-77h152v-59h-152v-274h217v-59h-359v59h73v274h-69v59h69v83c0 111 70 202 185 202c36 0 75 -7 107 -25z" />
    <glyph glyph-name="section" unicode="&#xa7;" 
d="M386 266c0 -57 -32 -95 -71 -130c36 -31 58 -63 58 -114c0 -88 -78 -146 -171 -146c-44 0 -78 18 -118 35l6 63c28 -19 77 -41 111 -41c55 0 104 33 104 90c0 39 -21 68 -55 89l-93 57c-42 26 -77 64 -77 122s37 104 82 132c-46 28 -63 67 -63 121c0 81 73 133 156 133
c37 0 84 -11 113 -26l-6 -58c-34 12 -67 27 -102 27c-45 0 -93 -28 -93 -78c0 -39 30 -69 68 -96l75 -54c42 -30 76 -69 76 -126zM321 264c0 30 -24 63 -57 87l-63 47c-27 -18 -57 -60 -57 -95c0 -30 18 -62 44 -79l86 -56c26 29 47 54 47 96z" />
    <glyph glyph-name="bullet" unicode="&#x2022;" 
d="M343 310c0 -61 -49 -110 -110 -110s-110 49 -110 110s49 111 110 111s110 -50 110 -111z" />
    <glyph glyph-name="paragraph" unicode="&#xb6;" horiz-adv-x="542" 
d="M447 -108h-53v727h-93v-727h-53v430c-100 2 -188 66 -188 173c0 125 87 171 206 171h181v-774z" />
    <glyph glyph-name="germandbls" unicode="&#xdf;" horiz-adv-x="471" 
d="M442 128c0 -76 -48 -139 -127 -139c-43 0 -60 8 -99 23l6 60c29 -16 49 -27 85 -27c44 0 69 39 69 82c0 94 -162 116 -162 249c0 73 61 128 130 129c0 74 -20 169 -106 169c-78 0 -102 -100 -102 -162v-512h-65v511c0 109 56 220 165 220c128 0 170 -124 170 -235v-33
c-48 0 -125 -19 -125 -85c0 -100 161 -118 161 -250z" />
    <glyph glyph-name="registered" unicode="&#xae;" horiz-adv-x="790" 
d="M739 334c0 -190 -154 -345 -344 -345s-344 155 -344 345s154 343 344 343s344 -153 344 -343zM679 334c0 157 -125 289 -284 289s-284 -131 -284 -289c0 -157 125 -291 284 -291s284 134 284 291zM554 145h-63l-54 122c-17 39 -31 51 -80 51h-35v-173h-59v391h130
c72 0 134 -29 134 -103c0 -51 -47 -88 -98 -95c33 -6 49 -24 61 -51zM465 431c0 49 -50 57 -100 57h-43v-122h44c48 0 99 13 99 65z" />
    <glyph glyph-name="copyright" unicode="&#xa9;" horiz-adv-x="790" 
d="M739 334c0 -190 -154 -345 -344 -345s-344 155 -344 345s154 343 344 343s344 -153 344 -343zM679 334c0 158 -125 289 -284 289s-284 -131 -284 -289s125 -291 284 -291c160 0 284 133 284 291zM525 152c-29 -12 -64 -19 -96 -19c-134 0 -220 78 -220 201
c0 120 91 201 220 201c31 0 67 -7 96 -17l-4 -54c-26 11 -59 19 -88 19c-102 0 -162 -61 -162 -149c0 -89 58 -149 162 -149c32 0 59 9 88 21z" />
    <glyph glyph-name="trademark" unicode="&#x2122;" horiz-adv-x="754" 
d="M700 266h-56v353l-112 -353h-46l-112 353v-353h-53v401h87l103 -328l103 328h86v-401zM259 622h-97v-356h-58v356h-96v45h251v-45z" />
    <glyph glyph-name="acute" unicode="&#xb4;" horiz-adv-x="207" 
d="M204 720l-93 -136h-52l75 136h70z" />
    <glyph glyph-name="dieresis" unicode="&#xa8;" horiz-adv-x="207" 
d="M204 607h-59v86h59v-86zM62 607h-59v86h59v-86z" />
    <glyph glyph-name="notequal" unicode="&#x2260;" horiz-adv-x="542" 
d="M522 120h-288l-75 -143l-51 27l63 116h-150v58h180l69 131h-249v57h280l78 147l50 -26l-64 -121h157v-57h-188l-69 -131h257v-58z" />
    <glyph glyph-name="AE" unicode="&#xc6;" horiz-adv-x="713" 
d="M668 0h-302v181h-210l-86 -181h-78l331 667h334v-62h-221v-229h210v-60h-210v-254h232v-62zM366 239v375l-182 -375h182z" />
    <glyph glyph-name="Oslash" unicode="&#xd8;" horiz-adv-x="574" 
d="M561 674l-83 -112c34 -66 45 -152 45 -229c0 -153 -51 -344 -236 -344c-81 0 -136 34 -172 85l-70 -95l-29 23l78 105c-33 66 -43 151 -43 226c0 152 53 344 236 344c80 0 134 -32 170 -81l75 101zM413 538c-24 46 -62 77 -126 77c-141 0 -162 -172 -162 -282
c0 -49 4 -107 20 -158zM449 333c0 50 -4 111 -21 163l-268 -363c24 -48 62 -82 127 -82c143 0 162 171 162 282z" />
    <glyph glyph-name="infinity" unicode="&#x221e;" horiz-adv-x="772" 
d="M708 247c0 -87 -64 -158 -153 -158c-82 0 -123 51 -166 112c-43 -59 -89 -109 -168 -109c-87 0 -156 67 -156 155s63 157 153 157c77 0 126 -56 166 -114c46 57 86 111 166 111c89 0 158 -64 158 -154zM657 246c0 54 -44 102 -99 102c-53 0 -107 -69 -138 -107
c34 -45 71 -101 135 -101c57 0 102 50 102 106zM353 252c-32 43 -76 101 -136 101c-57 0 -102 -48 -102 -105c0 -56 44 -103 101 -103c63 0 100 66 137 107z" />
    <glyph glyph-name="plusminus" unicode="&#xb1;" horiz-adv-x="542" 
d="M522 266h-219v-175h-63v175h-219v58h219v174h63v-174h219v-58zM522 -12h-501v58h501v-58z" />
    <glyph glyph-name="lessequal" unicode="&#x2264;" horiz-adv-x="542" 
d="M520 73l-501 190v63l501 189v-63l-422 -158l422 -158v-63zM520 -27h-501v57h501v-57z" />
    <glyph glyph-name="greaterequal" unicode="&#x2265;" horiz-adv-x="542" 
d="M523 263l-501 -190v63l421 158l-421 158v63l501 -189v-63zM523 -27h-501v57h501v-57z" />
    <glyph glyph-name="yen" unicode="&#xa5;" 
d="M433 667l-149 -338h105v-54h-123v-71h123v-53h-123v-151h-67v151h-123v53h123v71h-123v54h106l-149 338h71l130 -315l129 315h70z" />
    <glyph glyph-name="mu" unicode="&#x3bc;" 
d="M394 0h-60l-2 72c-20 -41 -61 -83 -119 -83c-28 0 -57 8 -78 29v-234h-63v714h65v-342c0 -58 22 -109 84 -109c71 0 105 76 105 134v317h64v-350c0 -50 3 -98 4 -148z" />
    <glyph glyph-name="partialdiff" unicode="&#x2202;" horiz-adv-x="542" 
d="M478 363c0 -142 -43 -376 -225 -376c-125 0 -197 113 -197 228c0 116 72 208 193 208c65 0 119 -30 164 -75c1 9 0 24 0 34c-2 107 -25 292 -167 292c-45 0 -89 -18 -119 -52l-35 42c43 36 88 56 144 56c188 0 242 -205 242 -357zM411 302c-40 42 -88 77 -149 77
c-99 0 -145 -85 -145 -174c0 -82 46 -174 139 -174c123 0 146 180 155 271z" />
    <glyph glyph-name="summation" unicode="&#x2211;" horiz-adv-x="750" 
d="M685 -200h-605v58l275 450l-255 437v55h568v-56h-494l256 -436l-275 -447h530v-61z" />
    <glyph glyph-name="product" unicode="&#x220f;" horiz-adv-x="750" 
d="M643 -200h-63v939h-409v-939h-63v1000h535v-1000z" />
    <glyph glyph-name="pi" unicode="&#x3c0;" horiz-adv-x="650" 
d="M526 8c-22 -12 -42 -19 -67 -19c-61 0 -77 38 -77 92v337h-152v-418h-63v418h-70v60h429v-60h-81v-325c0 -24 1 -47 30 -47c17 0 36 11 51 18v-56z" />
    <glyph glyph-name="integral" unicode="&#x222b;" 
d="M394 775l-6 -62c-15 7 -31 9 -47 9c-74 0 -72 -81 -72 -107v-673c0 -71 -12 -169 -133 -169c-19 0 -45 2 -62 10l6 62c15 -7 31 -9 47 -9c74 0 72 81 72 107v673c0 71 11 169 132 169c19 0 46 -1 63 -10z" />
    <glyph glyph-name="ordfeminine" unicode="&#xaa;" horiz-adv-x="310" 
d="M268 371h-56l-2 42c-22 -32 -48 -49 -89 -49c-65 0 -93 46 -93 87c0 85 89 107 158 107h22v13c0 34 -15 57 -65 57c-27 0 -61 -11 -84 -28l-4 54c30 14 57 23 95 23c79 0 114 -40 114 -102v-138c0 -24 2 -45 4 -66zM208 491v23h-11c-58 0 -110 -15 -110 -60
c0 -36 35 -41 51 -41c47 0 70 37 70 78z" />
    <glyph glyph-name="ordmasculine" unicode="&#xba;" horiz-adv-x="310" 
d="M283 522c0 -74 -34 -158 -128 -158s-127 82 -127 158c0 73 34 155 127 155c95 0 128 -80 128 -155zM223 522c0 40 -8 106 -68 106c-57 0 -67 -68 -67 -106c0 -39 9 -108 67 -108s68 69 68 108z" />
    <glyph glyph-name="Omega" unicode="&#x3a9;" horiz-adv-x="750" 
d="M675 0h-263v176c119 1 194 107 194 219c0 125 -107 227 -231 227s-231 -102 -231 -227c0 -112 75 -218 194 -219v-176h-263v60h203v75c-123 24 -203 143 -203 264c0 163 143 282 300 282c156 0 300 -119 300 -281c0 -120 -79 -242 -202 -265v-75h202v-60z" />
    <glyph glyph-name="ae" unicode="&#xe6;" horiz-adv-x="663" 
d="M623 239h-266c0 -83 22 -194 126 -194c36 0 83 17 111 39l6 -67c-39 -17 -78 -28 -122 -28c-89 0 -125 39 -156 112c-24 -68 -78 -112 -156 -112c-84 0 -131 58 -131 139c0 117 108 164 212 164h46v23c0 60 -16 137 -93 137c-49 0 -85 -23 -125 -50l-6 65
c47 28 80 41 138 41s114 -32 128 -86c27 53 63 86 124 86c140 0 164 -137 164 -240v-29zM556 292c0 64 -11 161 -97 161c-79 0 -102 -100 -102 -161h199zM293 194v45h-20c-70 0 -171 -17 -171 -111c0 -48 32 -83 81 -83c78 0 110 82 110 149z" />
    <glyph glyph-name="oslash" unicode="&#xf8;" horiz-adv-x="456" 
d="M444 500l-65 -83c26 -48 35 -109 35 -166c0 -118 -44 -262 -186 -262c-60 0 -102 26 -131 65l-60 -79l-27 22l68 87c-26 49 -36 112 -36 167c0 118 51 257 186 257c61 0 103 -24 132 -62l58 76zM320 394c-17 33 -47 57 -92 57c-96 0 -116 -127 -116 -200
c0 -32 4 -72 14 -107zM345 251c0 31 -3 71 -13 105l-193 -249c17 -35 45 -61 89 -61c99 0 117 129 117 205z" />
    <glyph glyph-name="questiondown" unicode="&#xbf;" horiz-adv-x="352" 
d="M246 407h-80v91h80v-91zM319 -156c-31 -12 -67 -23 -105 -23c-104 0 -176 55 -176 163c0 140 135 169 135 330v18h65v-16c0 -174 -126 -208 -126 -325c0 -63 39 -106 105 -106c37 0 69 11 96 30z" />
    <glyph glyph-name="exclamdown" unicode="&#xa1;" horiz-adv-x="261" 
d="M170 407h-79v91h79v-91zM170 -169h-79l9 501h62z" />
    <glyph glyph-name="logicalnot" unicode="&#xac;" horiz-adv-x="542" 
d="M520 120h-60v189h-441v57h501v-246z" />
    <glyph glyph-name="radical" unicode="&#x221a;" horiz-adv-x="542" 
d="M502 800l-181 -1000h-56l-158 346l-46 -21l-23 43l101 46l149 -333l161 919h53z" />
    <glyph glyph-name="florin" unicode="&#x192;" 
d="M417 664l-10 -59c-12 9 -27 14 -42 14c-58 0 -71 -108 -84 -165l-12 -54h85v-55h-96l-73 -347c-17 -83 -46 -225 -149 -225c-17 0 -34 1 -50 8l10 58c10 -4 20 -8 31 -8c60 0 83 130 92 175l71 339h-85v55h96l14 62c20 89 38 215 142 215c21 0 41 -4 60 -13z" />
    <glyph glyph-name="approxequal" unicode="&#x2248;" horiz-adv-x="542" 
d="M534 400c-5 -69 -44 -137 -122 -137c-93 0 -199 73 -280 73c-46 0 -73 -38 -79 -80h-45c11 70 40 138 124 138c92 0 196 -73 280 -73c48 0 71 37 80 79h42zM534 231c-5 -69 -44 -137 -122 -137c-93 0 -199 73 -280 73c-46 0 -73 -38 -79 -80h-45c11 70 40 138 124 138
c92 0 196 -72 280 -72c48 0 71 36 80 78h42z" />
    <glyph glyph-name="Delta" unicode="&#x394;" horiz-adv-x="750" 
d="M694 0h-638l280 671h76zM605 57l-231 549l-230 -549h461z" />
    <glyph glyph-name="guillemotleft" unicode="&#xab;" horiz-adv-x="377" 
d="M338 55h-59l-110 199l110 200h59l-102 -200zM200 55h-59l-109 199l109 200h59l-102 -200z" />
    <glyph glyph-name="guillemotright" unicode="&#xbb;" horiz-adv-x="377" 
d="M345 255l-109 -200h-59l102 200l-102 199h59zM208 255l-110 -200h-59l102 200l-102 199h59z" />
    <glyph glyph-name="ellipsis" unicode="&#x2026;" horiz-adv-x="1000" 
d="M873 0h-80v91h80v-91zM540 0h-80v91h80v-91zM207 0h-80v91h80v-91z" />
    <glyph glyph-name="nbspace" unicode="&#xa0;" horiz-adv-x="232" 
 />
    <glyph glyph-name="Agrave" unicode="&#xc0;" horiz-adv-x="533" 
d="M305 724h-52l-93 136h71zM522 0h-74l-54 181h-257l-55 -181h-70l218 667h75zM376 240l-110 360l-112 -360h222z" />
    <glyph glyph-name="Atilde" unicode="&#xc3;" horiz-adv-x="533" 
d="M397 843c0 -42 -28 -98 -76 -98c-46 0 -69 41 -102 41c-21 0 -38 -26 -38 -46h-43c0 47 28 99 80 99c42 0 76 -42 103 -42c22 0 34 28 34 46h42zM522 0h-74l-54 181h-257l-55 -181h-70l218 667h75zM376 240l-110 360l-112 -360h222z" />
    <glyph glyph-name="Otilde" unicode="&#xd5;" horiz-adv-x="574" 
d="M417 843c0 -42 -28 -98 -76 -98c-46 0 -70 41 -103 41c-21 0 -38 -26 -38 -46h-44c0 47 29 99 81 99c42 0 77 -42 104 -42c22 0 32 28 32 46h44zM523 333c0 -153 -51 -344 -236 -344c-193 0 -236 189 -236 344c0 152 53 344 236 344c195 0 236 -189 236 -344zM449 333
c0 114 -16 282 -162 282c-141 0 -162 -172 -162 -282c0 -116 21 -282 162 -282c143 0 162 171 162 282z" />
    <glyph glyph-name="OE" unicode="&#x152;" horiz-adv-x="722" 
d="M677 0h-295c-21 -5 -58 -11 -94 -11c-193 0 -236 189 -236 344c0 152 52 344 236 344c33 0 71 -5 94 -10h284v-62h-221v-229h209v-60h-209v-254h232v-62zM375 64v538c-19 6 -47 13 -86 13c-141 0 -163 -170 -163 -282c0 -115 21 -282 163 -282c37 0 68 4 86 13z" />
    <glyph glyph-name="oe" unicode="&#x153;" horiz-adv-x="718" 
d="M678 232h-267c0 -87 27 -187 133 -187c38 0 83 17 113 39l6 -67c-35 -18 -86 -28 -125 -28c-75 0 -130 32 -162 99c-29 -60 -80 -99 -148 -99c-143 0 -186 143 -186 262c0 118 51 257 186 257c69 0 118 -35 148 -97c26 56 77 97 141 97c131 0 161 -140 161 -247v-29z
M612 283c0 63 -17 170 -95 170c-76 0 -106 -102 -106 -170h201zM345 251c0 78 -14 200 -117 200c-96 0 -116 -127 -116 -200c0 -76 16 -205 116 -205s117 129 117 205z" />
    <glyph glyph-name="endash" unicode="&#x2013;" horiz-adv-x="500" 
d="M500 283h-500v54h500v-54z" />
    <glyph glyph-name="emdash" unicode="&#x2014;" horiz-adv-x="1000" 
d="M1000 283h-1000v54h1000v-54z" />
    <glyph glyph-name="quotedblleft" unicode="&#x201c;" horiz-adv-x="372" 
d="M313 721l-50 -219h-75l70 219h55zM173 721l-51 -219h-74l70 219h55z" />
    <glyph glyph-name="quotedblright" unicode="&#x201d;" horiz-adv-x="372" 
d="M324 721l-70 -219h-55l51 219h74zM184 721l-70 -219h-55l51 219h74z" />
    <glyph glyph-name="quoteleft" unicode="&#x2018;" horiz-adv-x="232" 
d="M173 721l-51 -219h-74l70 219h55z" />
    <glyph glyph-name="quoteright" unicode="&#x2019;" horiz-adv-x="232" 
d="M184 721l-70 -219h-55l51 219h74z" />
    <glyph glyph-name="divide" unicode="&#xf7;" horiz-adv-x="542" 
d="M322 423c0 -28 -23 -51 -51 -51c-27 0 -50 23 -50 51s22 51 50 51s51 -23 51 -51zM522 214h-501v59h501v-59zM322 64c0 -28 -23 -52 -51 -52s-50 24 -50 52s23 51 50 51c28 0 51 -23 51 -51z" />
    <glyph glyph-name="lozenge" unicode="&#x25ca;" horiz-adv-x="542" 
d="M472 400l-171 -400h-61l-169 400l169 400h61zM409 400l-138 335l-138 -335l138 -335z" />
    <glyph glyph-name="ydieresis" unicode="&#xff;" horiz-adv-x="371" 
d="M289 607h-59v86h59v-86zM147 607h-59v86h59v-86zM361 498l-160 -591c-20 -73 -42 -133 -122 -133c-16 0 -29 2 -43 7l6 62c10 -7 27 -11 40 -11c25 0 44 30 52 60l27 99l-147 507h71l109 -408l101 408h66z" />
    <glyph glyph-name="Ydieresis" unicode="&#x178;" horiz-adv-x="414" 
d="M309 750h-59v85h59v-85zM167 750h-60v85h60v-85zM413 667l-170 -381v-286h-71v286l-171 381h78l131 -318l130 318h73z" />
    <glyph glyph-name="fraction" unicode="&#x2044;" horiz-adv-x="43" 
d="M188 691l-279 -715h-53l278 715h54z" />
    <glyph glyph-name="currency" unicode="&#xa4;" 
d="M441 140l-35 -39l-58 65c-32 -29 -73 -45 -115 -45s-82 17 -115 44l-57 -63l-35 39l56 63c-26 40 -39 79 -39 129c0 48 13 90 39 128l-57 64l35 40l57 -65c34 29 73 44 116 44c45 0 79 -15 116 -43l57 63l35 -40l-57 -63c25 -39 39 -80 39 -129c0 -48 -13 -89 -39 -127z
M364 332c0 84 -58 152 -131 152s-131 -67 -131 -152c0 -84 59 -152 131 -152s131 68 131 152z" />
    <glyph glyph-name="guilsinglleft" unicode="&#x2039;" horiz-adv-x="239" 
d="M201 55h-60l-109 199l109 200h60l-103 -200z" />
    <glyph glyph-name="guilsinglright" unicode="&#x203a;" horiz-adv-x="239" 
d="M208 255l-109 -200h-60l102 200l-102 199h60z" />
    <glyph glyph-name="fi" unicode="&#xfb01;" horiz-adv-x="451" 
d="M381 607h-66v86h66v-86zM380 0h-64v498h64v-498zM264 723l-6 -57c-12 5 -24 8 -37 8c-44 0 -62 -30 -62 -77v-99h87v-55h-87v-443h-64v443h-76v55h76v94c0 98 38 139 121 139c19 0 34 -5 48 -8z" />
    <glyph glyph-name="fl" unicode="&#xfb02;" horiz-adv-x="451" 
d="M380 0h-64v721h64v-721zM264 723l-6 -57c-12 5 -24 8 -37 8c-44 0 -62 -30 -62 -77v-99h87v-55h-87v-443h-64v443h-76v55h76v94c0 98 38 139 121 139c19 0 34 -5 48 -8z" />
    <glyph glyph-name="daggerdbl" unicode="&#x2021;" 
d="M399 101h-132v-229h-68v229h-132v62h132v267h-132v62h132v229h68v-229h132v-62h-132v-267h132v-62z" />
    <glyph glyph-name="periodcentered" unicode="&#xb7;" horiz-adv-x="232" 
d="M156 264h-79v92h79v-92z" />
    <glyph glyph-name="quotesinglbase" unicode="&#x201a;" horiz-adv-x="232" 
d="M158 91l-69 -219h-56l51 219h74z" />
    <glyph glyph-name="quotedblbase" unicode="&#x201e;" horiz-adv-x="372" 
d="M298 91l-69 -219h-56l51 219h74zM158 91l-69 -219h-56l51 219h74z" />
    <glyph glyph-name="perthousand" unicode="&#x2030;" horiz-adv-x="1070" 
d="M1006 195c0 -77 -15 -206 -124 -206s-126 129 -126 206c0 74 18 206 126 206c110 0 124 -130 124 -206zM706 195c0 -77 -15 -206 -124 -206s-125 129 -125 206c0 74 17 206 125 206c110 0 124 -130 124 -206zM552 691l-278 -715h-53l278 715h53zM315 471
c0 -77 -15 -206 -124 -206s-126 129 -126 206c0 74 18 206 126 206c110 0 124 -130 124 -206zM947 195c0 58 -2 157 -65 157s-67 -98 -67 -157c0 -60 5 -157 67 -157c63 0 65 99 65 157zM647 195c0 58 -2 157 -65 157s-66 -98 -66 -157c0 -60 4 -157 66 -157
c63 0 65 99 65 157zM256 471c0 58 -2 157 -65 157s-67 -98 -67 -157c0 -60 5 -157 67 -157c63 0 65 99 65 157z" />
    <glyph glyph-name="Acircumflex" unicode="&#xc2;" horiz-adv-x="533" 
d="M389 724h-58l-64 96l-62 -96h-60l92 136h60zM522 0h-74l-54 181h-257l-55 -181h-70l218 667h75zM376 240l-110 360l-112 -360h222z" />
    <glyph glyph-name="Ecircumflex" unicode="&#xca;" horiz-adv-x="433" 
d="M352 724h-59l-63 96l-62 -96h-60l93 136h59zM388 0h-304v667h293v-62h-223v-229h211v-60h-211v-254h234v-62z" />
    <glyph glyph-name="Aacute" unicode="&#xc1;" horiz-adv-x="533" 
d="M374 860l-91 -136h-53l73 136h71zM522 0h-74l-54 181h-257l-55 -181h-70l218 667h75zM376 240l-110 360l-112 -360h222z" />
    <glyph glyph-name="Edieresis" unicode="&#xcb;" horiz-adv-x="433" 
d="M331 750h-59v85h59v-85zM189 750h-59v85h59v-85zM388 0h-304v667h293v-62h-223v-229h211v-60h-211v-254h234v-62z" />
    <glyph glyph-name="Egrave" unicode="&#xc8;" horiz-adv-x="433" 
d="M267 724h-51l-92 136h70zM388 0h-304v667h293v-62h-223v-229h211v-60h-211v-254h234v-62z" />
    <glyph glyph-name="Iacute" unicode="&#xcd;" horiz-adv-x="238" 
d="M225 860l-93 -136h-51l74 136h70zM155 0h-71v667h71v-667z" />
    <glyph glyph-name="Icircumflex" unicode="&#xce;" horiz-adv-x="238" 
d="M242 724h-60l-63 96l-63 -96h-60l93 136h61zM155 0h-71v667h71v-667z" />
    <glyph glyph-name="Idieresis" unicode="&#xcf;" horiz-adv-x="238" 
d="M220 750h-59v85h59v-85zM78 750h-59v85h59v-85zM155 0h-71v667h71v-667z" />
    <glyph glyph-name="Igrave" unicode="&#xcc;" horiz-adv-x="238" 
d="M157 724h-52l-92 136h70zM155 0h-71v667h71v-667z" />
    <glyph glyph-name="Oacute" unicode="&#xd3;" horiz-adv-x="574" 
d="M399 860l-92 -136h-52l73 136h71zM523 333c0 -153 -51 -344 -236 -344c-193 0 -236 189 -236 344c0 152 53 344 236 344c195 0 236 -189 236 -344zM449 333c0 114 -16 282 -162 282c-141 0 -162 -172 -162 -282c0 -116 21 -282 162 -282c143 0 162 171 162 282z" />
    <glyph glyph-name="Ocircumflex" unicode="&#xd4;" horiz-adv-x="574" 
d="M409 724h-59l-63 96l-63 -96h-59l92 136h60zM523 333c0 -153 -51 -344 -236 -344c-193 0 -236 189 -236 344c0 152 53 344 236 344c195 0 236 -189 236 -344zM449 333c0 114 -16 282 -162 282c-141 0 -162 -172 -162 -282c0 -116 21 -282 162 -282c143 0 162 171 162 282
z" />
    <glyph glyph-name="Ograve" unicode="&#xd2;" horiz-adv-x="574" 
d="M319 724h-52l-92 136h71zM523 333c0 -153 -51 -344 -236 -344c-193 0 -236 189 -236 344c0 152 53 344 236 344c195 0 236 -189 236 -344zM449 333c0 114 -16 282 -162 282c-141 0 -162 -172 -162 -282c0 -116 21 -282 162 -282c143 0 162 171 162 282z" />
    <glyph glyph-name="Uacute" unicode="&#xda;" horiz-adv-x="551" 
d="M376 860l-92 -136h-53l73 136h72zM476 242c0 -133 -49 -253 -201 -253c-159 0 -199 115 -199 253v425h71v-428c0 -92 13 -189 128 -189c113 0 130 97 130 189v428h71v-425z" />
    <glyph glyph-name="Ucircumflex" unicode="&#xdb;" horiz-adv-x="551" 
d="M398 724h-59l-64 96l-62 -96h-60l92 136h60zM476 242c0 -133 -49 -253 -201 -253c-159 0 -199 115 -199 253v425h71v-428c0 -92 13 -189 128 -189c113 0 130 97 130 189v428h71v-425z" />
    <glyph glyph-name="Ugrave" unicode="&#xd9;" horiz-adv-x="551" 
d="M323 724h-52l-92 136h71zM476 242c0 -133 -49 -253 -201 -253c-159 0 -199 115 -199 253v425h71v-428c0 -92 13 -189 128 -189c113 0 130 97 130 189v428h71v-425z" />
    <glyph glyph-name="dotlessi" unicode="&#x131;" horiz-adv-x="207" 
d="M136 0h-65v498h65v-498z" />
    <glyph glyph-name="circumflex" unicode="&#x2c6;" horiz-adv-x="207" 
d="M225 584h-60l-62 97l-61 -97h-60l91 136h60z" />
    <glyph glyph-name="tilde" unicode="&#x2dc;" horiz-adv-x="207" 
d="M234 704c0 -42 -28 -99 -76 -99c-46 0 -70 41 -103 41c-21 0 -38 -26 -38 -46h-42c0 47 27 99 79 99c42 0 77 -41 104 -41c22 0 33 28 33 46h43z" />
    <glyph glyph-name="macron" unicode="&#xaf;" horiz-adv-x="207" 
d="M221 629h-234v48h234v-48z" />
    <glyph glyph-name="breve" unicode="&#x2d8;" horiz-adv-x="207" 
d="M216 709c0 -28 -20 -117 -112 -117s-113 89 -113 117h41c4 -42 31 -70 72 -70s66 28 71 70h41z" />
    <glyph glyph-name="dotaccent" unicode="&#x2d9;" horiz-adv-x="207" 
d="M137 607h-66v86h66v-86z" />
    <glyph glyph-name="ring" unicode="&#x2da;" horiz-adv-x="207" 
d="M196 652c0 -52 -39 -91 -91 -91s-94 39 -94 91s43 92 94 92s91 -40 91 -92zM160 652c0 31 -23 57 -55 57c-30 0 -57 -26 -57 -57c0 -32 25 -56 57 -56s55 24 55 56z" />
    <glyph glyph-name="cedilla" unicode="&#xb8;" horiz-adv-x="207" 
d="M196 -110c0 -43 -40 -71 -98 -71c-29 0 -64 4 -86 16l11 30c20 -7 41 -14 66 -14c29 0 51 14 51 37c0 22 -17 34 -36 34c-18 0 -28 -3 -39 -8l-11 19l50 67h37l-41 -54c8 3 16 5 33 5c33 0 63 -26 63 -61z" />
    <glyph glyph-name="hungarumlaut" unicode="&#x2dd;" horiz-adv-x="207" 
d="M243 720l-92 -136h-52l73 136h71zM109 720l-92 -136h-53l73 136h72z" />
    <glyph glyph-name="ogonek" unicode="&#x2db;" horiz-adv-x="207" 
d="M181 -165c-24 -10 -45 -16 -67 -16c-51 0 -89 29 -89 78c0 42 32 76 94 103h37c-46 -29 -76 -56 -76 -98c0 -34 25 -51 47 -51c14 0 34 7 44 13z" />
    <glyph glyph-name="caron" unicode="&#x2c7;" horiz-adv-x="207" 
d="M225 720l-91 -136h-60l-92 136h60l63 -96l60 96h60z" />
    <glyph glyph-name="Euro" unicode="&#x20ac;" 
d="M421 653l-11 -66c-17 18 -55 28 -79 28c-100 0 -140 -112 -153 -192h209l-8 -48h-206c-1 -15 -1 -28 -1 -42s0 -27 1 -42h193l-8 -48h-180c12 -82 53 -192 153 -192c29 0 56 9 79 25l6 -69c-28 -12 -59 -18 -90 -18c-142 0 -202 131 -219 254h-72l8 48h59
c-1 15 -2 27 -2 42c0 14 1 27 2 42h-67l8 48h65c18 121 77 254 219 254c33 0 66 -7 94 -24z" />
    <glyph glyph-name="Eth" unicode="&#xd0;" horiz-adv-x="554" 
d="M504 333c0 -199 -97 -333 -303 -333h-117v307h-59v56h59v304h95c220 0 325 -120 325 -334zM430 333c0 154 -59 272 -229 272h-46v-242h137v-56h-137v-245h59c163 0 216 126 216 271z" />
  </font>
</defs>
</svg>
